+ ตอบกลับกระทู้
สรุปผลการค้นหา 1 ถึง 2 จากทั้งหมด 2
  1. #1
    Administrators รูปส่วนตัว Duckload.us
    สมัครเมื่อ
    Dec 2010
    โพสต์
    150,748
    Thanks
    7
    Thanked 158,010 Times in 68,987 Posts

    Lightbulb Once Upon A Time Life นิทานชีวิต ชุด จักรกลของร่างกาย (พากย์ไทย) 1080p-WEB-DL.H.264.1080p. [Master]



    Once Upon A Time Life นิทานชีวิต ชุด จักรกลของร่างกาย (Sound Thai, Eng, Fre / Sub Eng, Fre) 1080p
    ซี่รี่ย์ที่บอกเราดั่งนิทานของการทำงานในร่างกายมนุษ ย์ เราจะได้เดินทางไปสู่พิภพเล็กๆ ที่ซึ่งชีวิตเกิดขึ้น เล่าการทำงานของเซลล์ อวัยวะต่างๆ ที่ซึ่งชีวิตพัฒนาและดำเนินไป การต่อสู้กับเชื้อโรคผุ้รุกรานร่างกายของเรา เล่าการทำงานของร่างกายที่สุดแสนจะมหัศจรรย์ ยิ่งใหญ่เกินจินตนาการ

    นิทานชีวิต ตอน จักรกลของร่างกาย มีทั้งหมด 26 ตอน
    ตอนที่ 1 ดาวเคราะห์เซลล์ ...
    ตอนที่ 2 กำเนิดชีวิต ...
    ตอนที่ 3 ระบบภูมิคุ้มกัน ...
    ตอนที่ 4 ไขกระดูก ...
    ตอนที่ 5 เลือด ...
    ตอนที่ 6 เกล็ดเลือด ...
    ตอนที่ 7 หัวใจ ...
    ตอนที่ 8 การหายใจ ...
    ตอนที่ 9 สมอง ...
    ตอนที่ 10 เซลล์ประสาท ...
    ตอนที่ 11 นัยย์ตา ...
    ตอนที่ 12 หู ...
    ตอนที่ 13 ผิวหนัง ...
    ตอนที่ 14 ปุ่มรับรสและฟัน ...
    ตอนที่ 15 การย่อยอาหาร ...
    ตอนที่ 16 ตับ ...
    ตอนที่ 17 ไต ...
    ตอนที่ 18 ระบบน้ำเหลือง ...
    ตอนที่ 19 โครงกระดูก...
    ตอนที่ 20 กล้ามเนื้อและไขมัน ...
    ตอนที่ 21 สงครามสารพิษ ...
    ตอนที่ 22 การฉีดวัคซีน...
    ตอนที่ 23 ฮอร์โมน ...
    ตอนที่ 24 โซ่ชีวิต ...
    ตอนที่ 25 เวรกลางคืน ...
    ตอนที่ 26 ชีวิตดำเนินต่อไป ...

    Credit Detail : https://www.siambit.me/details.php?i...shinfo=1228439
    Credit Thai Sound : https://www.siambit.me/details.php?i...shinfo=1537014

    MI
    ตัวอย่าง ตอนที่ 1 ดาวเคราะห์เซลล์ ...
    General
    Unique ID : 194310887522005314599569913108601067134 (0x922EEA69FF9ED1639CD9FBB8973D567E)
    Complete name : C:Once Upon A Time Life นิทานชีวิต ชุด จักรกลของร่างกาย {พากย์ไทย} 1080p1.ดาวเคราะห์เซลล์.1080p.Thai.mkv
    Format : Matroska
    Format version : Version 4
    File size : 1.29 GiB
    Duration : 23 min 56 s
    Overall bit rate mode : Variable
    Overall bit rate : 7 719 kb/s
    Encoded date : UTC 2021-06-09 10:28:28
    Writing application : mkvmerge v57.0.0 ('Till The End') 64-bit
    Writing library : libebml v1.4.2 + libmatroska v1.6.4

    Video
    ID : 1
    Format : AVC
    Format/Info : Advanced Video Codec
    Format profile : Main@L4
    Format settings : CABAC / 3 Ref Frames
    Format settings, CABAC : Yes
    Format settings, Reference frames : 3 frames
    Codec ID : V_MPEG4/ISO/AVC
    Duration : 23 min 55 s
    Bit rate mode : Variable
    Bit rate : 7 150 kb/s
    Maximum bit rate : 10.7 Mb/s
    Width : 1 920 pixels
    Height : 1 080 pixels
    Display aspect ratio : 16:9
    Frame rate mode : Constant
    Frame rate : 25.000 FPS
    Color space : YUV
    Chroma subsampling : 4:2:0
    Bit depth : 8 bits
    Scan type : Progressive
    Bits/(Pixel*Frame) : 0.138
    Stream size : 1.19 GiB (93%)
    Writing library : x264 core 118
    Encoding settings : cabac=1 / ref=3 / deblock=1:0:0 / analyse=0x1:0x111 / me=umh / subme=10 / psy=1 / psy_rd=1.00:0.00 / mixed_ref=1 / me_range=24 / chroma_me=1 / trellis=2 / 8x8dct=0 / cqm=0 / deadzone=21,11 / fast_pskip=1 / chroma_qp_offset=-2 / threads=8 / sliced_threads=0 / nr=0 / decimate=1 / interlaced=0 / bluray_compat=0 / constrained_intra=0 / bframes=2 / b_pyramid=0 / b_adapt=2 / b_bias=0 / direct=3 / weightb=1 / open_gop=0 / weightp=2 / keyint=50 / keyint_min=26 / scenecut=0 / intra_refresh=0 / rc_lookahead=0 / rc=2pass / mbtree=1 / bitrate=7150 / ratetol=1.0 / qcomp=0.50 / qpmin=6 / qpmax=51 / qpstep=4 / cplxblur=20.0 / qblur=0.5 / vbv_maxrate=10725 / vbv_bufsize=14300 / nal_hrd=vbr / ip_ratio=1.40 / aq=1:1.00
    Language : French
    Default : Yes
    Forced : No

    Audio #1
    ID : 2
    Format : AC-3
    Format/Info : Audio Coding 3
    Commercial name : Dolby Digital
    Codec ID : A_AC3
    Duration : 23 min 56 s
    Bit rate mode : Constant
    Bit rate : 320 kb/s
    Channel(s) : 2 channels
    Channel layout : L R
    Sampling rate : 48.0 kHz
    Frame rate : 31.250 FPS (1536 SPF)
    Compression mode : Lossy
    Stream size : 54.8 MiB (4%)
    Language : Thai
    Service kind : Complete Main
    Default : Yes
    Forced : No

    Audio #2
    ID : 3
    Format : E-AC-3
    Format/Info : Enhanced AC-3
    Commercial name : Dolby Digital Plus
    Codec ID : A_EAC3
    Duration : 23 min 56 s
    Bit rate mode : Constant
    Bit rate : 128 kb/s
    Channel(s) : 2 channels
    Channel layout : L R
    Sampling rate : 48.0 kHz
    Frame rate : 31.250 FPS (1536 SPF)
    Compression mode : Lossy
    Stream size : 21.9 MiB (2%)
    Title : ENG
    Language : English
    Service kind : Complete Main
    Default : No
    Forced : No

    Audio #3
    ID : 4
    Format : E-AC-3
    Format/Info : Enhanced AC-3
    Commercial name : Dolby Digital Plus
    Codec ID : A_EAC3
    Duration : 23 min 56 s
    Bit rate mode : Constant
    Bit rate : 128 kb/s
    Channel(s) : 2 channels
    Channel layout : L R
    Sampling rate : 48.0 kHz
    Frame rate : 31.250 FPS (1536 SPF)
    Compression mode : Lossy
    Stream size : 21.9 MiB (2%)
    Title : FRA
    Language : French
    Service kind : Complete Main
    Default : No
    Forced : No

    Text #1
    ID : 5
    Format : UTF-8
    Codec ID : S_TEXT/UTF8
    Codec ID/Info : UTF-8 Plain Text
    Duration : 1 s 640 ms
    Bit rate : 73 b/s
    Count of elements : 1
    Stream size : 15.0 Bytes (0%)
    Title : Eng Sub - forced
    Language : English
    Default : No
    Forced : No

    Text #2
    ID : 6
    Format : UTF-8
    Codec ID : S_TEXT/UTF8
    Codec ID/Info : UTF-8 Plain Text
    Duration : 23 min 52 s
    Bit rate : 47 b/s
    Count of elements : 228
    Stream size : 8.36 KiB (0%)
    Title : Eng Sub - full
    Language : English
    Default : No
    Forced : No

    Text #3
    ID : 7
    Format : UTF-8
    Codec ID : S_TEXT/UTF8
    Codec ID/Info : UTF-8 Plain Text
    Duration : 23 min 34 s
    Bit rate : 69 b/s
    Count of elements : 333
    Stream size : 12.0 KiB (0%)
    Title : Eng Sub - SDH
    Language : English
    Default : No
    Forced : No

    Text #4
    ID : 8
    Format : UTF-8
    Codec ID : S_TEXT/UTF8
    Codec ID/Info : UTF-8 Plain Text
    Duration : 23 min 52 s
    Bit rate : 57 b/s
    Count of elements : 253
    Stream size : 10.1 KiB (0%)
    Title : Fra Sub - SDH
    Language : French
    Default : No
    Forced : No


    26.ชีวิตดำเนินไป.1080p.Thai.mkv
    http://www.filecondo.com/dl.php?f=412f391QciFu

    25.เวรกลางคืน.1080p.Thai.mkv
    http://www.filecondo.com/dl.php?f=ma89001QciEx

    24.โซ่ชีวิต.1080p.Thai.mkv
    http://www.filecondo.com/dl.php?f=p0c3341QciDz

    23.ฮอร์โมน.1080p.Thai.mkv
    http://www.filecondo.com/dl.php?f=b1bbbb1QciCB

    22.การฉีดวัคซีน.1080p.Thai.mkv
    http://www.filecondo.com/dl.php?f=O5c0401QciBD

    21.สงครามสารพิษ.1080p.Thai.mkv
    http://www.filecondo.com/dl.php?f=8e86a81QciAE

    20.กล้ามเนื้อและไขมัน.1080p.Thai.mkv
    http://www.filecondo.com/dl.php?f=m1dbe21QcizI

    19.โครงกระดูก.1080p.Thai.mkv
    http://www.filecondo.com/dl.php?f=ec514d1QciyK

    18.ระบบน้ำเหลือง.1080p.Thai.mkv
    http://www.filecondo.com/dl.php?f=5085fa1QcixM

    17.ไต.1080p.Thai.mkv
    http://www.filecondo.com/dl.php?f=y2b8b61QciwN

    16.ตับ.1080p.Thai.mkv
    http://www.filecondo.com/dl.php?f=Y301eb1QcivP

    15.การย่อยอาหาร.1080p.Thai.mkv
    http://www.filecondo.com/dl.php?f=Me28201QciuR

    14.ปุ่มรับรสและฟัน.1080p.Thai.mkv
    http://www.filecondo.com/dl.php?f=vb9cd21QcitT

    13.ผิวหนัง.1080p.Thai.mkv
    http://www.filecondo.com/dl.php?f=t19e2f1QcisU

    12.หู.1080p.Thai.mkv
    http://www.filecondo.com/dl.php?f=ib7ea81QcirW

    11.ดวงตา.1080p.Thai.mkv
    http://www.filecondo.com/dl.php?f=ib949e1Qcir0

    10.เซลล์ประสาท.1080p.Thai.mkv
    http://www.filecondo.com/dl.php?f=sd472f1Qciq0

    09.สมอง.1080p.Thai.mkv
    http://www.filecondo.com/dl.php?f=D6a8791Qcip4

    08.การหายใจ.1080p.Thai.mkv
    http://www.filecondo.com/dl.php?f=Q471b41Qcio5

    07.หัวใจ.1080p.Thai.mkv
    http://www.filecondo.com/dl.php?f=Nbb2e41Qcin8

    06.เกล็ดเลือดขนาดจิ๋ว.1080p.Thai.mkv
    http://www.filecondo.com/dl.php?f=F781201Qcima

    05.ระบบเลือด.1080p.Thai.mkv
    http://www.filecondo.com/dl.php?f=j977391Qcilc

    04.ไขกระดูก.1080p.Thai.mkv
    http://www.filecondo.com/dl.php?f=Bd45de1Qcikc

    03.ระบบภูมิคุ้มกัน.1080p.Thai.mkv
    http://www.filecondo.com/dl.php?f=Lf4ea21Qcijg

    02.กำเนิดชีวิต.1080p.Thai.mkv
    http://www.filecondo.com/dl.php?f=c8599a1Qciih

    01.ดาวเคราะห์เซลล์.1080p.Thai.mkv
    http://www.filecondo.com/dl.php?f=r5d1111Qcihk

  2. The Following User Says Thank You to Duckload.us For This Useful Post:

    kappa (06-27-2023)

  3. #2
    Junior Member
    สมัครเมื่อ
    Mar 2022
    โพสต์
    26
    Thanks
    0
    Thanked 0 Times in 0 Posts
    แอดครับขอรบดวนช่วยแก้ตอนที่10ทีครับมันเสีย ขอบคุณมากนะครับ

+ ตอบกลับกระทู้

ข้อมูลกระทู้

Users Browsing this Thread

ในขณะนี้มี 1 ท่านดูกระทู้อยู่. (0 สมาชิกและ 1 ผู้เยี่ยมชม)

     

กฎการโพสต์ข้อความ

  • ท่าน ไม่สามารถ ตั้งกระทู้ใหม่ได้
  • ท่าน ไม่สามารถ ตอบกระทู้ได้
  • ท่าน ไม่สามารถ แนบไฟล์ได้
  • ท่าน ไม่สามารถ แก้ไขข้อความโพสต์ได้
  • BB code สถานะ เปิด
  • Smilies สถานะ เปิด
  • [IMG] สถานะ เปิด
  • HTML สถานะ ปิด