+ ตอบกลับกระทู้
สรุปผลการค้นหา 1 ถึง 7 จากทั้งหมด 7
  1. #1
    Administrators รูปส่วนตัว Duckload.us
    สมัครเมื่อ
    Dec 2010
    โพสต์
    149,921
    Thanks
    7
    Thanked 156,888 Times in 68,557 Posts

    Exclamation [ฝรั่ง] The Flash (2023) / เดอะ แฟลช ***พากย์ไทยมาสเตอร์***[พากย์:ไทย/อังกฤษ][SUB:ไทย/อังกฤษ][1080ip]



    ทุกมิติโลกจะเข้ามาปะทะกัน เมื่อ แบร์รี ใช้พลังเหนือธรรมชาติของเขาย้อนเวลากลับไปเพื่อเปลี่ ยนแปลงเหตุการณ์ในอดีต แต่ความพยายามในการช่วยเหลือครอบครัวของเขา ทำให้อนาคตเปลี่ยนแปลงไปโดยไม่คาดฝัน แบร์รีติดอยู่ในความเป็นจริงใหม่ที่นายพลซอด กลับมาอีกครั้ง เพื่อล้างบ้างทุกสิ่งมีชีวิต และไม่มีซูเปอร์ฮีโร่คนไหนเลยที่จะก้าวเข้ามาหยุดยั้ งได้ นอกเสียงจากว่าแบร์รีจะสามารถโน้มน้าวใจให้แบทแมนที่ เกษียณตัวเองไปแล้วกลับมา และช่วยเหลือชาวคริปโตเนียนจากการถูกคุมขังมาได้...โ ดยที่เขาไม่รู้ว่านั่นไม่ใช่คนที่เขากำลังตามหา ท้ายที่สุดแล้ว เพื่อปกป้อ

    Director
    Andy Muschietti
    Writers
    Christina Hodson / John Francis Daley / Jonathan Goldstein
    Stars
    Ezra Miller / Michael Keaton / Sasha Calle

    Format : Matroska
    Format version : Version 4
    File size : 9.85 GiB
    Duration : 2 h 24 min
    Overall bit rate : 9 786 kb/s
    Encoded date : UTC 2023-07-22 01:16:44
    Writing application : mkvmerge v8.3.0 ('Over the Horizon') 32bit
    Writing library : libebml v1.3.1 + libmatroska v1.4.2

    Video
    ID : 1
    Format : AVC
    Format/Info : Advanced Video Codec
    Format profile : High@L4
    Format settings : CABAC / 4 Ref Frames
    Format settings, CABAC : Yes
    Format settings, Reference fra : 4 frames
    Codec ID : V_MPEG4/ISO/AVC
    Duration : 2 h 24 min
    Bit rate mode : Constant
    Bit rate : 8 887 kb/s
    Nominal bit rate : 10 000 kb/s
    Width : 1 920 pixels
    Height : 1 040 pixels
    Display aspect ratio : 1.85:1
    Frame rate mode : Constant
    Frame rate : 23.976 (24000/1001) FPS
    Color space : YUV
    Chroma subsampling : 4:2:0
    Bit depth : 8 bits
    Scan type : Progressive
    Bits/(Pixel*Frame) : 0.186
    Stream size : 8.94 GiB (91%)
    Language : English
    Default : Yes
    Forced : No
    Color range : Limited
    Color primaries : BT.709
    Transfer characteristics : BT.709
    Matrix coefficients : BT.709

    Audio #1
    ID : 2
    Format : AC-3
    Format/Info : Audio Coding 3
    Commercial name : Dolby Digital
    Codec ID : A_AC3
    Duration : 2 h 24 min
    Bit rate mode : Constant
    Bit rate : 448 kb/s
    Channel(s) : 6 channels
    Channel layout : L R C LFE Ls Rs
    Sampling rate : 48.0 kHz
    Frame rate : 31.250 FPS (1536 SPF)
    Compression mode : Lossy
    Stream size : 462 MiB (5%)
    Language : Thai
    Service kind : Complete Main
    Default : Yes
    Forced : No

    Audio #2
    ID : 3
    Format : AC-3
    Format/Info : Audio Coding 3
    Commercial name : Dolby Digital
    Codec ID : A_AC3
    Duration : 2 h 24 min
    Bit rate mode : Constant
    Bit rate : 448 kb/s
    Channel(s) : 6 channels
    Channel layout : L R C LFE Ls Rs
    Sampling rate : 48.0 kHz
    Frame rate : 31.250 FPS (1536 SPF)
    Compression mode : Lossy
    Stream size : 462 MiB (5%)
    Language : English
    Service kind : Complete Main
    Default : No
    Forced : No

    Text #1
    ID : 4
    Format : UTF-8
    Codec ID : S_TEXT/UTF8
    Codec ID/Info : UTF-8 Plain Text
    Duration : 2 h 23 min
    Bit rate : 108 b/s
    Frame rate : 0.223 FPS
    Count of elements : 1919
    Stream size : 114 KiB (0%)
    Language : Thai
    Default : Yes
    Forced : No

    Text #2
    ID : 5
    Format : UTF-8
    Codec ID : S_TEXT/UTF8
    Codec ID/Info : UTF-8 Plain Text
    Duration : 2 h 23 min
    Bit rate : 51 b/s
    Frame rate : 0.227 FPS
    Count of elements : 1950
    Stream size : 54.3 KiB (0%)
    Language : English
    Default : No
    Forced : No

    Text #3
    ID : 6
    Format : UTF-8
    Codec ID : S_TEXT/UTF8
    Codec ID/Info : UTF-8 Plain Text
    Duration : 2 h 22 min
    Bit rate : 2 b/s
    Frame rate : 0.006 FPS
    Count of elements : 48
    Stream size : 2.34 KiB (0%)
    Title : FORCED
    Language : Thai
    Default : No
    Forced : No

    Menu
    00:00:00.000 : en:Chapter 01
    00:06:59.564 : en:Chapter 02
    00:15:39.751 : en:Chapter 03
    00:22:57.689 : en:Chapter 04
    00:30:47.492 : en:Chapter 05
    00:36:45.058 : en:Chapter 06
    00:45:39.884 : en:Chapter 07
    00:54:53.021 : en:Chapter 08
    01:02:06.329 : en:Chapter 09
    01:11:08.371 : en:Chapter 10
    01:20:54.165 : en:Chapter 11
    01:29:38.398 : en:Chapter 12
    01:37:51.808 : en:Chapter 13
    01:47:27.092 : en:Chapter 14
    01:56:47.152 : en:Chapter 15
    02:06:23.269 : en:Chapter 16
    02:13:56.181 : en:Chapter 17
    02:22:34.657 : en:Chapter 18











    ซับไทยแก้ไขคำที่พิมพ์ตก จากซับมาสเตอร์
    แต่อาจจะไม่ครบถ้วน



    Download:filecondo
    The_Flash_(2023).mkv
    http://www.filecondo.com/dl.php?f=c942d01Qn9em
    10.57 GB
    The_Flash_(2023)_เดอะ_แฟลช.1080p.WEBRip.x264.AAC5. 1.bURiN.mkv
    http://www.filecondo.com/dl.php?f=3c5f181Qn9d3
    3.21 GB
    The.Flash.2023.1080p.WEB.DL.x264.__GOLD_CUP.mkv
    http://www.filecondo.com/dl.php?f=Jf34351QnyyP
    6.6 GB
    The_Flash_(2023)_เดอะ_แฟลช.1080p.WEBRip.x264.AAC5. 1~1.mkv
    http://www.filecondo.com/dl.php?f=cec26f1QnyxK
    5.56 GB

    Download:037file
    The Flash (2023) เดอะ แฟลช.1080p.WEBRip.x264.AAC5.1 @bURiN.mkv - 3.0 GB
    The Flash (2023).mkv - 9.8 GB
    The Flash (2023) เดอะ แฟลช.1080p.WEBRip.x264.AAC5.1~1.mkv - 5.2 GB
    The.Flash.2023.1080p.WEB.DL.x264.__GOLD CUP.mkv - 6.1 GB

  2. The Following 7 Users Say Thank You to Duckload.us For This Useful Post:

    bigbang06 (07-22-2023), Jodz14 (07-23-2023), noi54 (07-23-2023), petpina2010 (07-22-2023), sasithep (07-28-2023), Tellmon (08-02-2023), Wesker_TOT (07-24-2023)

  3. #2
    Senior Member รูปส่วนตัว petpina2010
    สมัครเมื่อ
    Jun 2020
    โพสต์
    235
    Thanks
    239
    Thanked 0 Times in 0 Posts
    ขอบคุณครับ

  4. #3
    Member
    สมัครเมื่อ
    Jul 2012
    โพสต์
    59
    Thanks
    0
    Thanked 0 Times in 0 Posts
    ขอบคุณมากครับ

  5. #4
    Senior Member
    สมัครเมื่อ
    May 2011
    โพสต์
    111
    Thanks
    39
    Thanked 0 Times in 0 Posts
    ขอบคุณครับ ทันใจจริงๆ

  6. #5
    Senior Member
    สมัครเมื่อ
    Jul 2013
    โพสต์
    3,644
    Thanks
    0
    Thanked 0 Times in 0 Posts
    ขอบคุณครับผม ได้ดูตรงปากสักที

  7. #6
    Senior Member
    สมัครเมื่อ
    Oct 2013
    โพสต์
    2,512
    Thanks
    0
    Thanked 0 Times in 0 Posts
    ขอบคุณครับ

  8. #7
    Senior Member
    สมัครเมื่อ
    Dec 2013
    โพสต์
    6,002
    Thanks
    7,984
    Thanked 0 Times in 0 Posts
    ขอบคุณครับ...

+ ตอบกลับกระทู้

ข้อมูลกระทู้

Users Browsing this Thread

ในขณะนี้มี 1 ท่านดูกระทู้อยู่. (0 สมาชิกและ 1 ผู้เยี่ยมชม)

     

กฎการโพสต์ข้อความ

  • ท่าน ไม่สามารถ ตั้งกระทู้ใหม่ได้
  • ท่าน ไม่สามารถ ตอบกระทู้ได้
  • ท่าน ไม่สามารถ แนบไฟล์ได้
  • ท่าน ไม่สามารถ แก้ไขข้อความโพสต์ได้
  • BB code สถานะ เปิด
  • Smilies สถานะ เปิด
  • [IMG] สถานะ เปิด
  • HTML สถานะ ปิด