+ ตอบกลับกระทู้
สรุปผลการค้นหา 1 ถึง 6 จากทั้งหมด 6
  1. #1
    Administrators รูปส่วนตัว Duckload.us
    สมัครเมื่อ
    Dec 2010
    โพสต์
    149,921
    Thanks
    7
    Thanked 156,882 Times in 68,554 Posts

    Lightbulb [ฝรั่ง]-[AMZN] Tom Clancys Jack Ryan : Season 4 (2023) สายลับ แจ็ค ไรอัน [Complete 6 Episodes]-WEB-DL.H.264.1080p. [Master]-[พากย์ไทย/English 5.1 DD+ บรรยายไทย]




    พบกับแจ็ค ไรอันในซีซั่นสี่และซีซั่นสุดท้ายกับภารกิจที่อันตรา ยที่สุดเท่าที่เคยมีมา ในฐานะรักษาการรองผู้อำนวยการซีไอเอคนใหม่ แจ็คได้รับมอบหมายให้ตรวจสอบการทุจริตภายในองค์กร ขณะที่เขาสืบสวนอยู่ แจ็คก็ค้นพบว่ามีการรวมกันของแก๊งค้ายากับองค์กรก่อก ารร้าย ซึ่งนำไปสู่การเปิดเผยการสมรู้ร่วมคิดที่อยู่ใกล้ตัว กว่าที่คิดและทดสอบความเชื่อในระบบที่แจ็คต่อสู้เพื่ อปกป้องมาตลอด

    Video
    ID : 1
    Format : AVC
    Format/Info : Advanced Video Codec
    Format profile : High@L4
    Format settings : CABAC / 4 Ref Frames
    Format settings, CABAC : Yes
    Format settings, Reference frames : 4 frames
    Codec ID : V_MPEG4/ISO/AVC
    Duration : 1 h 3 min
    Bit rate mode : Constant
    Bit rate : 5 806 kb/s
    Nominal bit rate : 10 000 kb/s
    Width : 1 920 pixels
    Height : 800 pixels
    Display aspect ratio : 2.40:1
    Frame rate mode : Constant
    Frame rate : 23.976 (24000/1001) FPS
    Color space : YUV
    Chroma subsampling : 4:2:0
    Bit depth : 8 bits
    Scan type : Progressive
    Bits/(Pixel*Frame) : 0.158
    Stream size : 2.59 GiB (82%)
    Default : Yes
    Forced : No
    Color range : Limited
    Color primaries : BT.709
    Transfer characteristics : BT.709
    Matrix coefficients : BT.709

    Audio #1
    ID : 2
    Format : E-AC-3
    Format/Info : Enhanced AC-3
    Commercial name : Dolby Digital Plus
    Codec ID : A_EAC3
    Duration : 1 h 3 min
    Bit rate mode : Constant
    Bit rate : 640 kb/s
    Channel(s) : 6 channels
    Channel layout : L R C LFE Ls Rs
    Sampling rate : 48.0 kHz
    Frame rate : 31.250 FPS (1536 SPF)
    Compression mode : Lossy
    Stream size : 293 MiB (9%)
    Language : English
    Service kind : Complete Main
    Default : Yes
    Forced : No

    Audio #2
    ID : 3
    Format : E-AC-3
    Format/Info : Enhanced AC-3
    Commercial name : Dolby Digital Plus
    Codec ID : A_EAC3
    Duration : 1 h 3 min
    Bit rate mode : Constant
    Bit rate : 640 kb/s
    Channel(s) : 6 channels
    Channel layout : L R C LFE Ls Rs
    Sampling rate : 48.0 kHz
    Frame rate : 31.250 FPS (1536 SPF)
    Compression mode : Lossy
    Stream size : 293 MiB (9%)
    Language : Thai
    Service kind : Complete Main
    Default : No
    Forced : No

    Text #1
    ID : 4
    Format : UTF-8
    Codec ID : S_TEXT/UTF8
    Codec ID/Info : UTF-8 Plain Text
    Duration : 50 min 55 s
    Bit rate : 4 b/s
    Frame rate : 0.006 FPS
    Count of elements : 19
    Stream size : 1.73 KiB (0%)
    Title : Forced
    Language : Thai
    Default : No
    Forced : Yes

    Text #2
    ID : 5
    Format : UTF-8
    Codec ID : S_TEXT/UTF8
    Codec ID/Info : UTF-8 Plain Text
    Duration : 1 h 0 min
    Bit rate : 119 b/s
    Frame rate : 0.188 FPS
    Count of elements : 683
    Stream size : 52.9 KiB (0%)
    Language : Thai
    Default : No
    Forced : No

    Text #3
    ID : 6
    Format : UTF-8
    Codec ID : S_TEXT/UTF8
    Codec ID/Info : UTF-8 Plain Text
    Duration : 1 h 0 min
    Bit rate : 52 b/s
    Frame rate : 0.234 FPS
    Count of elements : 849
    Stream size : 23.4 KiB (0%)
    Title : SDH
    Language : English
    Default : No
    Forced : No




    Tom.Clancys.Jack.Ryan.S04E06.Proof.of.Concept.1080 p.AMZN.WEB-DL.DDP5.1.H.264-MESSI.mkv
    http://www.filecondo.com/dl.php?f=eceb6e1Qlpqc

    Tom.Clancys.Jack.Ryan.S04E05.Wukong.1080p.AMZN.WEB-DL.DDP5.1.H.264-MESSI.mkv
    http://www.filecondo.com/dl.php?f=5547ab1Qlpq2

    Tom.Clancys.Jack.Ryan.S04E04.Bethesda.1080p.AMZN.W EB-DL.DDP5.1.H.264-MESSI.mkv
    http://www.filecondo.com/dl.php?f=f0a8e71QlppP

    Tom.Clancys.Jack.Ryan.S04E03.Sacrifices.1080p.AMZN .WEB-DL.DDP5.1.H.264-MESSI.mkv
    http://www.filecondo.com/dl.php?f=Uf2ddc1QlppF

    Tom.Clancys.Jack.Ryan.S04E02.Convergence.1080p.AMZ N.WEB-DL.DDP5.1.H.264-MESSI.mkv
    http://www.filecondo.com/dl.php?f=Y7231c1Qlppv

    Tom.Clancys.Jack.Ryan.S04E01.Triage.1080p.AMZN.WEB-DL.DDP5.1.H.264-MESSI.mkv
    http://www.filecondo.com/dl.php?f=N832121Qlppj

  2. The Following 4 Users Say Thank You to Duckload.us For This Useful Post:

    jangska (11-10-2023), petpina2010 (11-08-2023), Wesker_TOT (08-01-2023), whiteherbie (02-03-2024)

  3. #2
    Senior Member
    สมัครเมื่อ
    Dec 2013
    โพสต์
    6,002
    Thanks
    7,984
    Thanked 0 Times in 0 Posts
    ขอบคุณครับ...

  4. #3
    Senior Member รูปส่วนตัว petpina2010
    สมัครเมื่อ
    Jun 2020
    โพสต์
    235
    Thanks
    239
    Thanked 0 Times in 0 Posts
    ขอบคุณครับ

  5. #4
    Senior Member
    สมัครเมื่อ
    Jul 2013
    โพสต์
    3,644
    Thanks
    0
    Thanked 0 Times in 0 Posts
    ขอบคุณครับ

  6. #5
    Senior Member
    สมัครเมื่อ
    Dec 2011
    โพสต์
    3,038
    Thanks
    610
    Thanked 0 Times in 0 Posts
    Thank you ka

  7. #6
    Junior Member
    สมัครเมื่อ
    Sep 2023
    โพสต์
    24
    Thanks
    0
    Thanked 0 Times in 0 Posts
    ep 2 5 6 โหลดไม่ได้แล้วครับ

+ ตอบกลับกระทู้

ข้อมูลกระทู้

Users Browsing this Thread

ในขณะนี้มี 1 ท่านดูกระทู้อยู่. (0 สมาชิกและ 1 ผู้เยี่ยมชม)

     

กฎการโพสต์ข้อความ

  • ท่าน ไม่สามารถ ตั้งกระทู้ใหม่ได้
  • ท่าน ไม่สามารถ ตอบกระทู้ได้
  • ท่าน ไม่สามารถ แนบไฟล์ได้
  • ท่าน ไม่สามารถ แก้ไขข้อความโพสต์ได้
  • BB code สถานะ เปิด
  • Smilies สถานะ เปิด
  • [IMG] สถานะ เปิด
  • HTML สถานะ ปิด