+ ตอบกลับกระทู้
สรุปผลการค้นหา 1 ถึง 2 จากทั้งหมด 2
  1. #1
    Administrators รูปส่วนตัว Duckload.us
    สมัครเมื่อ
    Dec 2010
    โพสต์
    152,675
    Thanks
    7
    Thanked 159,888 Times in 69,940 Posts

    Lightbulb [จีน]-Twilight (2023) : ผูกหัวใจรักสีหม่น [Season 1 Ep. 1-40 End] [เสียงพากย์จีน] [บรรยายไทย , จีน , อังกฤษ] [ซับไทย From WeTV + ซับ SRT , PGS]-WEB-DL.H.264.1080p. [Hi-def rip from Master]-[Soundtrack บรรยายไทย]



    เรื่องราว ฉีเหลียนซาน หนุ่มนักเขียนบทนิยายที่ได้บังเอิญพบเจอกับ หลิวเสีย นักจิตวิทยาสาวทั้งสองถูกโชคชะตานำพาให้มาเป็นเพื่อน ร่วมห้องที่แชร์บ้านกันอยู่ เธอเปิดสตูให้คำปรึกษาด้านจิตวิทยาเพื่อช่วยเหลือผู้ คนด้านจิตใจ เขาเองก็ได้ขอคำปรึกษาจากเธอในการนำไปปรับแก้ไขบทละค รนิยายจนทำให้ทั้งสองได้สนิทสนมกัน จากนั้นทั้งคู่ก็ได้ช่วยเหลือกันและกันสุดท้ายก็ได้ป ระสบความสำเร็จทั้งการงานและความรักไปด้วยกันเรื่องร าวจะดำเนินไปยังไงไปติดตามได้ใน Twilight (2023) : ผูกหัวใจรักสีหม่น


    Video
    ID : 1
    Format : AVC
    Format/Info : Advanced Video Codec
    Format profile : High@L4
    Format settings : CABAC / 4 Ref Frames
    Format settings, CABAC : Yes
    Format settings, Reference frames : 4 frames
    Codec ID : V_MPEG4/ISO/AVC
    Duration : 45 min 7 s
    Bit rate : 3 130 kb/s
    Width : 1 920 pixels
    Height : 1 080 pixels
    Display aspect ratio : 16:9
    Frame rate mode : Constant
    Frame rate : 25.000 FPS
    Color space : YUV
    Chroma subsampling : 4:2:0
    Bit depth : 8 bits
    Scan type : Progressive
    Bits/(Pixel*Frame) : 0.060
    Stream size : 1 008 MiB (90%)
    Title : Twilight.2023.S01E01.1080p.WeTV.WEB-DL.DDP2.0.x264_SkiesIT
    Writing library : x264 core 148
    Encoding settings : cabac=1 / ref=3 / deblock=1:0:0 / analyse=0x3:0x113 / me=umh / subme=10 / psy=1 / psy_rd=1.00:0.00 / mixed_ref=1 / me_range=24 / chroma_me=1 / trellis=2 / 8x8dct=1 / cqm=0 / deadzone=21,11 / fast_pskip=1 / chroma_qp_offset=-2 / threads=24 / lookahead_threads=2 / sliced_threads=0 / nr=0 / decimate=1 / interlaced=0 / bluray_compat=0 / constrained_intra=0 / bframes=3 / b_pyramid=2 / b_adapt=2 / b_bias=0 / direct=1 / weightb=1 / open_gop=0 / weightp=2 / keyint=125 / keyint_min=63 / scenecut=0 / intra_refresh=0 / rc_lookahead=60 / rc=2pass / mbtree=1 / bitrate=3130 / ratetol=1.0 / qcomp=0.60 / qpmin=0 / qpmax=69 / qpstep=4 / cplxblur=20.0 / qblur=0.5 / vbv_maxrate=6260 / vbv_bufsize=9390 / nal_hrd=none / filler=0 / ip_ratio=1.40 / aq=1:1.00
    Language : Chinese
    Default : Yes
    Forced : No

    Audio
    ID : 2
    Format : E-AC-3
    Format/Info : Enhanced AC-3
    Commercial name : Dolby Digital Plus
    Codec ID : A_EAC3
    Duration : 45 min 7 s
    Bit rate mode : Constant
    Bit rate : 192 kb/s
    Channel(s) : 2 channels
    Channel layout : L R
    Sampling rate : 48.0 kHz
    Frame rate : 31.250 FPS (1536 SPF)
    Compression mode : Lossy
    Stream size : 62.0 MiB (6%)
    Language : Chinese
    Service kind : Complete Main
    Default : Yes
    Forced : No

    Text #1
    ID : 3
    Format : UTF-8
    Codec ID : S_TEXT/UTF8
    Codec ID/Info : UTF-8 Plain Text
    Duration : 40 min 33 s
    Bit rate : 57 b/s
    Frame rate : 0.404 FPS
    Count of elements : 982
    Stream size : 17.1 KiB (0%)
    Title : (Simplified)
    Language : Chinese
    Default : No
    Forced : No

    Text #2
    ID : 4
    Format : UTF-8
    Codec ID : S_TEXT/UTF8
    Codec ID/Info : UTF-8 Plain Text
    Duration : 40 min 33 s
    Bit rate : 57 b/s
    Frame rate : 0.404 FPS
    Count of elements : 982
    Stream size : 17.1 KiB (0%)
    Title : (Traditional)
    Language : Chinese
    Default : No
    Forced : No

    Text #3
    ID : 5
    Format : UTF-8
    Codec ID : S_TEXT/UTF8
    Codec ID/Info : UTF-8 Plain Text
    Duration : 44 min 47 s
    Bit rate : 68 b/s
    Frame rate : 0.319 FPS
    Count of elements : 856
    Stream size : 22.4 KiB (0%)
    Language : English
    Default : No
    Forced : No

    Text #4
    ID : 6
    Format : UTF-8
    Codec ID : S_TEXT/UTF8
    Codec ID/Info : UTF-8 Plain Text
    Duration : 44 min 45 s
    Bit rate : 151 b/s
    Frame rate : 0.394 FPS
    Count of elements : 1057
    Stream size : 49.6 KiB (0%)
    Title : SRT From WeTV
    Language : Thai
    Default : Yes
    Forced : No

    Text #5
    ID : 7
    Format : PGS
    Muxing mode : zlib
    Codec ID : S_HDMV/PGS
    Codec ID/Info : Picture based subtitle format used on BDs/HD-DVDs
    Duration : 44 min 45 s
    Bit rate : 54.2 kb/s
    Frame rate : 0.787 FPS
    Count of elements : 2114
    Stream size : 17.4 MiB (2%)
    Title : Angsana PGS
    Language : Thai
    Default : No
    Forced : No

    Text #6
    ID : 8
    Format : PGS
    Muxing mode : zlib
    Codec ID : S_HDMV/PGS
    Codec ID/Info : Picture based subtitle format used on BDs/HD-DVDs
    Duration : 44 min 45 s
    Bit rate : 54.2 kb/s
    Frame rate : 0.787 FPS
    Count of elements : 2114
    Stream size : 17.4 MiB (2%)
    Title : Angsana PGS [Yellow]
    Language : Thai
    Default : No
    Forced : No

    Text #7
    ID : 9
    Format : PGS
    Muxing mode : zlib
    Codec ID : S_HDMV/PGS
    Codec ID/Info : Picture based subtitle format used on BDs/HD-DVDs
    Duration : 44 min 45 s
    Bit rate : 51.3 kb/s
    Frame rate : 0.787 FPS
    Count of elements : 2114
    Stream size : 16.4 MiB (1%)
    Title : Cordia New PGS
    Language : Thai
    Default : No
    Forced : No

    Text #8
    ID : 10
    Format : PGS
    Muxing mode : zlib
    Codec ID : S_HDMV/PGS
    Codec ID/Info : Picture based subtitle format used on BDs/HD-DVDs
    Duration : 44 min 45 s
    Bit rate : 51.3 kb/s
    Frame rate : 0.787 FPS
    Count of elements : 2114
    Stream size : 16.4 MiB (1%)
    Title : Cordia New PGS [Yellow]
    Language : Thai
    Default : No
    Forced : No

    Text #9
    ID : 11
    Format : PGS
    Muxing mode : zlib
    Codec ID : S_HDMV/PGS
    Codec ID/Info : Picture based subtitle format used on BDs/HD-DVDs
    Duration : 44 min 45 s
    Bit rate : 50.7 kb/s
    Frame rate : 0.787 FPS
    Count of elements : 2114
    Stream size : 16.2 MiB (1%)
    Title : Droid Sans PGS
    Language : Thai
    Default : No
    Forced : No

    Text #10
    ID : 12
    Format : PGS
    Muxing mode : zlib
    Codec ID : S_HDMV/PGS
    Codec ID/Info : Picture based subtitle format used on BDs/HD-DVDs
    Duration : 44 min 45 s
    Bit rate : 50.7 kb/s
    Frame rate : 0.787 FPS
    Count of elements : 2114
    Stream size : 16.2 MiB (1%)
    Title : Droid Sans PGS [Yellow]
    Language : Thai
    Default : No
    Forced : No[








    Twilight.2023.S01E40.1080p.WeTV.WEB-DL.DDP2.0.x264_SkiesIT.mkv
    http://www.filecondo.com/dl.php?f=ga09261QomRy

    Twilight.2023.S01E39.1080p.WeTV.WEB-DL.DDP2.0.x264_SkiesIT.mkv
    http://www.filecondo.com/dl.php?f=Vea4131QomPC

    Twilight.2023.S01E38.1080p.WeTV.WEB-DL.DDP2.0.x264_SkiesIT.mkv
    http://www.filecondo.com/dl.php?f=481dee1QomOD

    Twilight.2023.S01E37.1080p.WeTV.WEB-DL.DDP2.0.x264_SkiesIT.mkv
    http://www.filecondo.com/dl.php?f=713d0b1QomNH

    Twilight.2023.S01E36.1080p.WeTV.WEB-DL.DDP2.0.x264_SkiesIT.mkv
    http://www.filecondo.com/dl.php?f=w242181QomMH

    Twilight.2023.S01E35.1080p.WeTV.WEB-DL.DDP2.0.x264_SkiesIT.mkv
    http://www.filecondo.com/dl.php?f=L6c7051QomLJ

    Twilight.2023.S01E34.1080p.WeTV.WEB-DL.DDP2.0.x264_SkiesIT.mkv
    http://www.filecondo.com/dl.php?f=Qcf2611QomKN

    Twilight.2023.S01E33.1080p.WeTV.WEB-DL.DDP2.0.x264_SkiesIT.mkv
    http://www.filecondo.com/dl.php?f=Zd58081QomJN

    Twilight.2023.S01E32.1080p.WeTV.WEB-DL.DDP2.0.x264_SkiesIT.mkv
    http://www.filecondo.com/dl.php?f=pe65111QomIP

    Twilight.2023.S01E31.1080p.WeTV.WEB-DL.DDP2.0.x264_SkiesIT.mkv
    http://www.filecondo.com/dl.php?f=z5aa4e1QomHS

    Twilight.2023.S01E30.1080p.WeTV.WEB-DL.DDP2.0.x264_SkiesIT.mkv
    http://www.filecondo.com/dl.php?f=Q8cfbd1QomGV

    Twilight.2023.S01E29.1080p.WeTV.WEB-DL.DDP2.0.x264_SkiesIT.mkv
    http://www.filecondo.com/dl.php?f=Zd24c31QomFW

    Twilight.2023.S01E28.1080p.WeTV.WEB-DL.DDP2.0.x264_SkiesIT.mkv
    http://www.filecondo.com/dl.php?f=2a6a241QomEY

    Twilight.2023.S01E27.1080p.WeTV.WEB-DL.DDP2.0.x264_SkiesIT.mkv
    http://www.filecondo.com/dl.php?f=E96acd1QomE0

    Twilight.2023.S01E26.1080p.WeTV.WEB-DL.DDP2.0.x264_SkiesIT.mkv
    http://www.filecondo.com/dl.php?f=f9daa71QomD2

    Twilight.2023.S01E25.1080p.WeTV.WEB-DL.DDP2.0.x264_SkiesIT.mkv
    http://www.filecondo.com/dl.php?f=Dbe0481QomB7

    Twilight.2023.S01E24.1080p.WeTV.WEB-DL.DDP2.0.x264_SkiesIT.mkv
    http://www.filecondo.com/dl.php?f=Ycee211QomA7

    Twilight.2023.S01E23.1080p.WeTV.WEB-DL.DDP2.0.x264_SkiesIT.mkv
    http://www.filecondo.com/dl.php?f=sd27aa1Qomza

    Twilight.2023.S01E22.1080p.WeTV.WEB-DL.DDP2.0.x264_SkiesIT.mkv
    http://www.filecondo.com/dl.php?f=v8b41b1Qomyc

    Twilight.2023.S01E21.1080p.WeTV.WEB-DL.DDP2.0.x264_SkiesIT.mkv
    http://www.filecondo.com/dl.php?f=j7a75f1Qomxe

    Twilight.2023.S01E20.1080p.WeTV.WEB-DL.DDP2.0.x264_SkiesIT.mkv
    http://www.filecondo.com/dl.php?f=ff115a1Qomwg

    Twilight.2023.S01E19.1080p.WeTV.WEB-DL.DDP2.0.x264_SkiesIT.mkv
    http://www.filecondo.com/dl.php?f=U8dd7f1Qomvj

    Twilight.2023.S01E18.1080p.WeTV.WEB-DL.DDP2.0.x264_SkiesIT.mkv
    http://www.filecondo.com/dl.php?f=X98bc91Qomuk

    Twilight.2023.S01E17.1080p.WeTV.WEB-DL.DDP2.0.x264_SkiesIT.mkv
    http://www.filecondo.com/dl.php?f=K7be451Qomtm

    Twilight.2023.S01E16.1080p.WeTV.WEB-DL.DDP2.0.x264_SkiesIT.mkv
    http://www.filecondo.com/dl.php?f=256e251Qomso

    Twilight.2023.S01E15.1080p.WeTV.WEB-DL.DDP2.0.x264_SkiesIT.mkv
    http://www.filecondo.com/dl.php?f=m0d6171Qomrq

    Twilight.2023.S01E14.1080p.WeTV.WEB-DL.DDP2.0.x264_SkiesIT.mkv
    http://www.filecondo.com/dl.php?f=ca2a5c1Qomqt

    Twilight.2023.S01E13.1080p.WeTV.WEB-DL.DDP2.0.x264_SkiesIT.mkv
    http://www.filecondo.com/dl.php?f=A3dc301Qompu

    Twilight.2023.S01E12.1080p.WeTV.WEB-DL.DDP2.0.x264_SkiesIT.mkv
    http://www.filecondo.com/dl.php?f=icbae61Qomow

    Twilight.2023.S01E11.1080p.WeTV.WEB-DL.DDP2.0.x264_SkiesIT.mkv
    http://www.filecondo.com/dl.php?f=Uf2a3f1QommA

    Twilight.2023.S01E09.1080p.WeTV.WEB-DL.DDP2.0.x264_SkiesIT.mkv
    http://www.filecondo.com/dl.php?f=G5d9cf1QomjF

    Twilight.2023.S01E08.1080p.WeTV.WEB-DL.DDP2.0.x264_SkiesIT.mkv
    http://www.filecondo.com/dl.php?f=y980a61QomiH

    Twilight.2023.S01E07.1080p.WeTV.WEB-DL.DDP2.0.x264_SkiesIT.mkv
    http://www.filecondo.com/dl.php?f=2ab9761QomhL

    Twilight.2023.S01E06.1080p.WeTV.WEB-DL.DDP2.0.x264_SkiesIT.mkv
    http://www.filecondo.com/dl.php?f=472ad11QomgN

    Twilight.2023.S01E05.1080p.WeTV.WEB-DL.DDP2.0.x264_SkiesIT.mkv
    http://www.filecondo.com/dl.php?f=Edd85c1QomfO

    Twilight.2023.S01E04.1080p.WeTV.WEB-DL.DDP2.0.x264_SkiesIT.mkv
    http://www.filecondo.com/dl.php?f=o8490e1QomeQ

    Twilight.2023.S01E03.1080p.WeTV.WEB-DL.DDP2.0.x264_SkiesIT.mkv
    http://www.filecondo.com/dl.php?f=5ffc4f1QomdS

    Twilight.2023.S01E02.1080p.WeTV.WEB-DL.DDP2.0.x264_SkiesIT.mkv
    http://www.filecondo.com/dl.php?f=ya55231QomcU

    Twilight.2023.S01E01.1080p.WeTV.WEB-DL.DDP2.0.x264_SkiesIT.mkv
    http://www.filecondo.com/dl.php?f=R733001QombW

  2. #2
    Junior Member
    สมัครเมื่อ
    Apr 2019
    โพสต์
    16
    Thanks
    10
    Thanked 0 Times in 0 Posts
    รบกวนขอตอนที่ 10 ค่ะ ขอบคุณค่ะ

+ ตอบกลับกระทู้

ข้อมูลกระทู้

Users Browsing this Thread

ในขณะนี้มี 1 ท่านดูกระทู้อยู่. (0 สมาชิกและ 1 ผู้เยี่ยมชม)

     

กฎการโพสต์ข้อความ

  • ท่าน ไม่สามารถ ตั้งกระทู้ใหม่ได้
  • ท่าน ไม่สามารถ ตอบกระทู้ได้
  • ท่าน ไม่สามารถ แนบไฟล์ได้
  • ท่าน ไม่สามารถ แก้ไขข้อความโพสต์ได้
  • BB code สถานะ เปิด
  • Smilies สถานะ เปิด
  • [IMG] สถานะ เปิด
  • HTML สถานะ ปิด