+ ตอบกลับกระทู้
หน้า 1 จากทั้งหมด 2 หน้า 1 2 หน้าสุดท้ายหน้าสุดท้าย
สรุปผลการค้นหา 1 ถึง 10 จากทั้งหมด 12
  1. #1
    Administrators รูปส่วนตัว Duckload.us
    สมัครเมื่อ
    Dec 2010
    โพสต์
    151,817
    Thanks
    7
    Thanked 158,780 Times in 69,420 Posts

    Exclamation [จีน]-[* YOUKU + NF *] Hidden Love (2023) : แอบรักให้เธอรู้ | Complete Season 1 [เสียงไทย + เสียงจีน] [บรรยายไทย , จีน , อังกฤษ] [เสียงไทย + ซับไทย From YOUKU + ซับ SRT , PGS]-WEB-DL.H.264.1080p.



    เป็นเรื่องราวที่เล่าถึงเด็กสาวเสี่ยวซางจือ สาวน้อยวัยร่าเริงโดยมีพี่ชายที่อายุห่าง 5 ปี ที่ชื่อซางเหยี่ยน อยู่มาวันนึงซางเหยี่ยนพาเพื่อนร่วมหอมาที่บ้านทำให้ สาวน้อยซางจือได้รู้จัก ต่วนเจวียชวี หนุ่มหล่อ หล่อฉลาด และ แสนดี ทำให้ทั้งคู่ได้รู้จักและสนิทสนมกันมากขึ้น จนเกิดจุดพันเปลี่ยน ซางจือได้ตกหลุมรักและแอบชอบเพื่อนของพี่ชายเข้า จนตั้งเป้าหมายสอบเข้ามหาวิทยาลัยอี้เหอบ้านเกิดของต ่วนเจวียชวีให้ได้ แต่ก็มีเรื่องให้เข้าใจผิดทำให้ซางจือละทิ้งและตัดพ้ อเลิกติดต่อกับเจวียชวีไปเกือบ 2 ปี จนมาโคจรพบเจอกันอีกครั้งเมื่อซางจือเข้ามาเรียนปี 1 ที่อี้เหอ ทำให้เขาติดต่อและใกล้ชิดและเริ่มคลานความเข้าใจผิด และเริ่มสานสัมพันธ์ที่มากกว่าพี่ชายน้องสาวมาเป็นคน รัก ที่ค่อยจับมือผ่าน อุปสรรคต่างๆไปด้วยกัน..


    Video
    ID : 1
    Format : AVC
    Format/Info : Advanced Video Codec
    Format profile : Main@L4
    Format settings : CABAC / 3 Ref Frames
    Format settings, CABAC : Yes
    Format settings, Reference frames : 3 frames
    Codec ID : V_MPEG4/ISO/AVC
    Duration : 44 min 24 s
    Bit rate mode : Variable
    Bit rate : 5 000 kb/s
    Maximum bit rate : 7 500 kb/s
    Width : 1 920 pixels
    Height : 1 080 pixels
    Display aspect ratio : 16:9
    Frame rate mode : Constant
    Frame rate : 25.000 FPS
    Color space : YUV
    Chroma subsampling : 4:2:0
    Bit depth : 8 bits
    Scan type : Progressive
    Bits/(Pixel*Frame) : 0.096
    Stream size : 1.55 GiB (93%)
    Title : Hidden.Love.2023.S01E01.1080p.YOUKU+NF.WEB-DL.DDP2.0.x264_SkiesIT
    Writing library : x264 core 148 r2727 7d026e8
    Encoding settings : cabac=1 / ref=3 / deblock=1:0:0 / analyse=0x1:0x111 / me=umh / subme=10 / psy=1 / psy_rd=1.00:0.00 / mixed_ref=1 / me_range=24 / chroma_me=1 / trellis=2 / 8x8dct=0 / cqm=0 / deadzone=21,11 / fast_pskip=1 / chroma_qp_offset=-2 / threads=6 / lookahead_threads=1 / sliced_threads=0 / nr=0 / decimate=1 / interlaced=0 / bluray_compat=0 / stitchable=1 / constrained_intra=0 / bframes=2 / b_pyramid=0 / b_adapt=2 / b_bias=0 / direct=3 / weightb=1 / open_gop=0 / weightp=2 / keyint=250 / keyint_min=126 / scenecut=0 / intra_refresh=0 / rc_lookahead=50 / rc=2pass / mbtree=1 / bitrate=5000 / ratetol=1.0 / qcomp=0.50 / qpmin=6 / qpmax=51 / qpstep=4 / cplxblur=20.0 / qblur=0.5 / vbv_maxrate=7500 / vbv_bufsize=10000 / nal_hrd=vbr / filler=0 / ip_ratio=1.40 / aq=1:1.00
    Language : Chinese
    Default : Yes
    Forced : No

    Audio #1
    ID : 2
    Format : E-AC-3
    Format/Info : Enhanced AC-3
    Commercial name : Dolby Digital Plus
    Codec ID : A_EAC3
    Duration : 44 min 24 s
    Bit rate mode : Constant
    Bit rate : 128 kb/s
    Channel(s) : 2 channels
    Channel layout : L R
    Sampling rate : 48.0 kHz
    Frame rate : 31.250 FPS (1536 SPF)
    Compression mode : Lossy
    Stream size : 40.7 MiB (2%)
    Language : Thai
    Service kind : Complete Main
    Default : Yes
    Forced : No

    Audio #2
    ID : 3
    Format : E-AC-3
    Format/Info : Enhanced AC-3
    Commercial name : Dolby Digital Plus
    Codec ID : A_EAC3
    Duration : 44 min 24 s
    Bit rate mode : Constant
    Bit rate : 128 kb/s
    Channel(s) : 2 channels
    Channel layout : L R
    Sampling rate : 48.0 kHz
    Frame rate : 31.250 FPS (1536 SPF)
    Bit depth : 32 bits
    Compression mode : Lossy
    Stream size : 40.7 MiB (2%)
    Title : 國 語 [原 始 ]
    Language : Chinese
    Service kind : Complete Main
    Default : No
    Forced : No

    Text #1
    ID : 4
    Format : UTF-8
    Codec ID : S_TEXT/UTF8
    Codec ID/Info : UTF-8 Plain Text
    Duration : 42 min 8 s
    Bit rate : 51 b/s
    Frame rate : 0.293 FPS
    Count of elements : 741
    Stream size : 15.8 KiB (0%)
    Title : 简 体 中 文
    Language : Chinese
    Default : No
    Forced : No

    Text #2
    ID : 5
    Format : UTF-8
    Codec ID : S_TEXT/UTF8
    Codec ID/Info : UTF-8 Plain Text
    Duration : 41 min 2 s
    Bit rate : 55 b/s
    Frame rate : 0.307 FPS
    Count of elements : 757
    Stream size : 16.7 KiB (0%)
    Title : 繁 體 中 文
    Language : Chinese
    Default : No
    Forced : No

    Text #3
    ID : 6
    Format : UTF-8
    Codec ID : S_TEXT/UTF8
    Codec ID/Info : UTF-8 Plain Text
    Duration : 41 min 0 s
    Bit rate : 60 b/s
    Frame rate : 0.323 FPS
    Count of elements : 795
    Stream size : 18.3 KiB (0%)
    Language : English
    Default : No
    Forced : No

    Text #4
    ID : 7
    Format : UTF-8
    Codec ID : S_TEXT/UTF8
    Codec ID/Info : UTF-8 Plain Text
    Duration : 43 min 43 s
    Bit rate : 154 b/s
    Frame rate : 0.378 FPS
    Count of elements : 992
    Stream size : 49.5 KiB (0%)
    Title : SRT From Youku
    Language : Thai
    Default : Yes
    Forced : No

    Text #5
    ID : 8
    Format : PGS
    Muxing mode : zlib
    Codec ID : S_HDMV/PGS
    Codec ID/Info : Picture based subtitle format used on BDs/HD-DVDs
    Duration : 43 min 43 s
    Bit rate : 55.0 kb/s
    Frame rate : 0.756 FPS
    Count of elements : 1984
    Stream size : 17.2 MiB (1%)
    Title : Angsana PGS
    Language : Thai
    Default : No
    Forced : No

    Text #6
    ID : 9
    Format : PGS
    Muxing mode : zlib
    Codec ID : S_HDMV/PGS
    Codec ID/Info : Picture based subtitle format used on BDs/HD-DVDs
    Duration : 43 min 43 s
    Bit rate : 55.0 kb/s
    Frame rate : 0.756 FPS
    Count of elements : 1984
    Stream size : 17.2 MiB (1%)
    Title : Angsana PGS [Yellow]
    Language : Thai
    Default : No
    Forced : No

    Text #7
    ID : 10
    Format : PGS
    Muxing mode : zlib
    Codec ID : S_HDMV/PGS
    Codec ID/Info : Picture based subtitle format used on BDs/HD-DVDs
    Duration : 43 min 43 s
    Bit rate : 52.0 kb/s
    Frame rate : 0.756 FPS
    Count of elements : 1984
    Stream size : 16.2 MiB (1%)
    Title : Cordia New PGS
    Language : Thai
    Default : No
    Forced : No

    Text #8
    ID : 11
    Format : PGS
    Muxing mode : zlib
    Codec ID : S_HDMV/PGS
    Codec ID/Info : Picture based subtitle format used on BDs/HD-DVDs
    Duration : 43 min 43 s
    Bit rate : 52.0 kb/s
    Frame rate : 0.756 FPS
    Count of elements : 1984
    Stream size : 16.2 MiB (1%)
    Title : Cordia New PGS [Yellow]
    Language : Thai
    Default : No
    Forced : No

    Text #9
    ID : 12
    Format : PGS
    Muxing mode : zlib
    Codec ID : S_HDMV/PGS
    Codec ID/Info : Picture based subtitle format used on BDs/HD-DVDs
    Duration : 43 min 43 s
    Bit rate : 51.5 kb/s
    Frame rate : 0.756 FPS
    Count of elements : 1984
    Stream size : 16.1 MiB (1%)
    Title : Droid Sans PGS
    Language : Thai
    Default : No
    Forced : No

    Text #10
    ID : 13
    Format : PGS
    Muxing mode : zlib
    Codec ID : S_HDMV/PGS
    Codec ID/Info : Picture based subtitle format used on BDs/HD-DVDs
    Duration : 43 min 43 s
    Bit rate : 51.5 kb/s
    Frame rate : 0.756 FPS
    Count of elements : 1984
    Stream size : 16.1 MiB (1%)
    Title : Droid Sans PGS [Yellow]
    Language : Thai
    Default : No
    Forced : No











    Download:filecondo
    Hidden.Love.2023.S01E25.1080p.YOUKU+NF.WEB-DL.DDP2.0.x264_SkiesIT.mkv
    http://www.filecondo.com/dl.php?f=9cb87b1Qokc7

    Hidden.Love.2023.S01E24.1080p.YOUKU+NF.WEB-DL.DDP2.0.x264_SkiesIT.mkv
    http://www.filecondo.com/dl.php?f=gca0de1Qokb8

    Hidden.Love.2023.S01E23.1080p.YOUKU+NF.WEB-DL.DDP2.0.x264_SkiesIT.mkv
    http://www.filecondo.com/dl.php?f=Kab7f01Qoka9

    Hidden.Love.2023.S01E22.1080p.YOUKU+NF.WEB-DL.DDP2.0.x264_SkiesIT.mkv
    http://www.filecondo.com/dl.php?f=2d9df81QAcvp

    Hidden.Love.2023.S01E21.1080p.YOUKU+NF.WEB-DL.DDP2.0.x264_SkiesIT.mkv
    http://www.filecondo.com/dl.php?f=H883971Qok8e

    Hidden.Love.2023.S01E20.1080p.YOUKU+NF.WEB-DL.DDP2.0.x264_SkiesIT.mkv
    http://www.filecondo.com/dl.php?f=e0e2fa1Qok7h

    Hidden.Love.2023.S01E19.1080p.YOUKU+NF.WEB-DL.DDP2.0.x264_SkiesIT.mkv
    http://www.filecondo.com/dl.php?f=red65e1Qok6i

    Hidden.Love.2023.S01E18.1080p.YOUKU+NF.WEB-DL.DDP2.0.x264_SkiesIT.mkv
    http://www.filecondo.com/dl.php?f=m4b9d81Qok5k

    Hidden.Love.2023.S01E17.1080p.YOUKU+NF.WEB-DL.DDP2.0.x264_SkiesIT.mkv
    http://www.filecondo.com/dl.php?f=8867241Qok4m

    Hidden.Love.2023.S01E16.1080p.YOUKU+NF.WEB-DL.DDP2.0.x264_SkiesIT.mkv
    http://www.filecondo.com/dl.php?f=8f02951Qok3o

    Hidden.Love.2023.S01E15.1080p.YOUKU+NF.WEB-DL.DDP2.0.x264_SkiesIT.mkv
    http://www.filecondo.com/dl.php?f=eaede21Qok2q

    Hidden.Love.2023.S01E14.1080p.YOUKU+NF.WEB-DL.DDP2.0.x264_SkiesIT.mkv
    http://www.filecondo.com/dl.php?f=P092961Qok1r

    Hidden.Love.2023.S01E13.1080p.YOUKU+NF.WEB-DL.DDP2.0.x264_SkiesIT.mkv
    http://www.filecondo.com/dl.php?f=x2cf091Qok0t

    Hidden.Love.2023.S01E12.1080p.YOUKU+NF.WEB-DL.DDP2.0.x264_SkiesIT.mkv
    http://www.filecondo.com/dl.php?f=Kccc231QojZw

    Hidden.Love.2023.S01E11.1080p.YOUKU+NF.WEB-DL.DDP2.0.x264_SkiesIT.mkv
    http://www.filecondo.com/dl.php?f=y819391QojYx

    Hidden.Love.2023.S01E10.1080p.YOUKU+NF.WEB-DL.DDP2.0.x264_SkiesIT.mkv
    http://www.filecondo.com/dl.php?f=b30b9f1QojXA

    Hidden.Love.2023.S01E09.1080p.YOUKU+NF.WEB-DL.DDP2.0.x264_SkiesIT.mkv
    http://www.filecondo.com/dl.php?f=e5b7dd1QojWB

    Hidden.Love.2023.S01E08.1080p.YOUKU+NF.WEB-DL.DDP2.0.x264_SkiesIT.mkv
    http://www.filecondo.com/dl.php?f=j319961QojVE

    Hidden.Love.2023.S01E07.1080p.YOUKU+NF.WEB-DL.DDP2.0.x264_SkiesIT.mkv
    http://www.filecondo.com/dl.php?f=Df09fa1QojUG

    Hidden.Love.2023.S01E06.1080p.YOUKU+NF.WEB-DL.DDP2.0.x264_SkiesIT.mkv
    http://www.filecondo.com/dl.php?f=Se216a1QojSK

    Hidden.Love.2023.S01E05.1080p.YOUKU+NF.WEB-DL.DDP2.0.x264_SkiesIT.mkv
    http://www.filecondo.com/dl.php?f=N76dc91QojRM

    Hidden.Love.2023.S01E04.1080p.YOUKU+NF.WEB-DL.DDP2.0.x264_SkiesIT.mkv
    http://www.filecondo.com/dl.php?f=25a6d91QojQO

    Hidden.Love.2023.S01E03.1080p.YOUKU+NF.WEB-DL.DDP2.0.x264_SkiesIT.mkv
    http://www.filecondo.com/dl.php?f=xf840a1QojPQ

    Hidden.Love.2023.S01E02.1080p.YOUKU+NF.WEB-DL.DDP2.0.x264_SkiesIT.mkv
    http://www.filecondo.com/dl.php?f=853bb11QojOS

    Hidden.Love.2023.S01E01.1080p.YOUKU+NF.WEB-DL.DDP2.0.x264_SkiesIT.mkv
    http://www.filecondo.com/dl.php?f=O781981QojNU

  2. The Following 3 Users Say Thank You to Duckload.us For This Useful Post:

    azygous (08-02-2023), F2UMaH6398 (08-29-2023), Tellmon (12-01-2023)

  3. #2
    Junior Member
    สมัครเมื่อ
    Jan 2019
    โพสต์
    3
    Thanks
    26
    Thanked 0 Times in 0 Posts
    ตอนที่ 22 ไม่มีลิงก์ไฟล์ค่ะ

  4. #3
    Member
    สมัครเมื่อ
    May 2015
    โพสต์
    34
    Thanks
    1
    Thanked 0 Times in 0 Posts
    ep 22 ไม่มีครับ

  5. #4
    Senior Member
    สมัครเมื่อ
    Aug 2012
    โพสต์
    593
    Thanks
    0
    Thanked 0 Times in 0 Posts
    ขอบคุณมากครับ รบกวนตอนที่ 22 ด้วยนะครับ

  6. #5
    Senior Member
    สมัครเมื่อ
    Sep 2012
    โพสต์
    183
    Thanks
    2
    Thanked 0 Times in 0 Posts
    ขอไฟล์ที่ 22 ด้วยค่ะ ขอบคุณค่ะ

  7. #6
    Member
    สมัครเมื่อ
    Apr 2012
    โพสต์
    58
    Thanks
    1
    Thanked 0 Times in 0 Posts
    ep22 ไม่มีลิ้งค่ะ

  8. #7
    Senior Member รูปส่วนตัว jokerxx
    สมัครเมื่อ
    Oct 2013
    โพสต์
    130
    Thanks
    2
    Thanked 1 Time in 1 Post
    ตอนที่ 22 ผมอัพให้ โชคดีมีไฟล์ซับให้เลยเอาเสียงไทยมาใส่ให้ ถ้าเสียงไม่ตรงก็แจ้งมาหน่อยจะแก้ให้ แต่เท่าที่ลองดูน่าจะไม่มีปัญหา

    http://www.filecondo.com/dl.php?f=Ac245a1Qvo7H

  9. #8
    Junior Member
    สมัครเมื่อ
    Jan 2012
    โพสต์
    25
    Thanks
    0
    Thanked 0 Times in 0 Posts
    ขอบคุณครับ

  10. #9
    Junior Member
    สมัครเมื่อ
    Jan 2012
    โพสต์
    25
    Thanks
    0
    Thanked 0 Times in 0 Posts
    อ้างอิง โพสต์ต้นฉบับโดยคุณ jokerxx ดูโพสต์
    ตอนที่ 22 ผมอัพให้ โชคดีมีไฟล์ซับให้เลยเอาเสียงไทยมาใส่ให้ ถ้าเสียงไม่ตรงก็แจ้งมาหน่อยจะแก้ให้ แต่เท่าที่ลองดูน่าจะไม่มีปัญหา

    http://www.filecondo.com/dl.php?f=Ac245a1Qvo7H
    ขอบคุณครับ

  11. #10
    Administrators รูปส่วนตัว Duckload.us
    สมัครเมื่อ
    Dec 2010
    โพสต์
    151,817
    Thanks
    7
    Thanked 158,780 Times in 69,420 Posts
    เรียนแจ้ง แก้ไขแล้วครับ

+ ตอบกลับกระทู้
หน้า 1 จากทั้งหมด 2 หน้า 1 2 หน้าสุดท้ายหน้าสุดท้าย

ข้อมูลกระทู้

Users Browsing this Thread

ในขณะนี้มี 1 ท่านดูกระทู้อยู่. (0 สมาชิกและ 1 ผู้เยี่ยมชม)

     

กฎการโพสต์ข้อความ

  • ท่าน ไม่สามารถ ตั้งกระทู้ใหม่ได้
  • ท่าน ไม่สามารถ ตอบกระทู้ได้
  • ท่าน ไม่สามารถ แนบไฟล์ได้
  • ท่าน ไม่สามารถ แก้ไขข้อความโพสต์ได้
  • BB code สถานะ เปิด
  • Smilies สถานะ เปิด
  • [IMG] สถานะ เปิด
  • HTML สถานะ ปิด