+ ตอบกลับกระทู้
สรุปผลการค้นหา 1 ถึง 6 จากทั้งหมด 6
  1. #1
    Administrators รูปส่วนตัว Duckload.us
    สมัครเมื่อ
    Dec 2010
    โพสต์
    148,074
    Thanks
    7
    Thanked 155,357 Times in 67,772 Posts

    Exclamation [ฝรั่ง]-Ahsoka.S01E01-08 1080p.HS.WEB-DL.DDP5.1.Atmos.H.264-MESSI-WEB-DL.H.264.1080p. [Master]-[พากย์ไทย/English 5.1 ATMOS บรรยายไทย]



    นักโทษระดับสูงหลบหนีจากการควบคุมตัวของสาธารณรัฐใหม ่ ทำให้เพื่อนเก่าทั้งสองได้กลับมาพบกันอีกครั้งเพื่อห าคำตอบ

    Video
    ID : 1
    Format : AVC
    Format/Info : Advanced Video Codec
    Format profile : High@L4
    Format settings : CABAC / 4 Ref Frames
    Format settings, CABAC : Yes
    Format settings, Reference frames : 4 frames
    Codec ID : V_MPEG4/ISO/AVC
    Duration : 54 min 46 s
    Bit rate : 3 300 kb/s
    Width : 1 920 pixels
    Height : 1 080 pixels
    Display aspect ratio : 16:9
    Frame rate mode : Constant
    Frame rate : 24.000 FPS
    Color space : YUV
    Chroma subsampling : 4:2:0
    Bit depth : 8 bits
    Scan type : Progressive
    Bits/(Pixel*Frame) : 0.066
    Stream size : 1.25 GiB (77%)
    Writing library : x264 core 155 r2917+2 f192430
    Encoding settings : cabac=1 / ref=4 / deblock=1:0:0 / analyse=0x3:0x113 / me=hex / subme=8 / psy=1 / psy_rd=1.00:0.00 / mixed_ref=1 / me_range=16 / chroma_me=1 / trellis=2 / 8x8dct=1 / cqm=0 / deadzone=21,11 / fast_pskip=1 / chroma_qp_offset=-2 / threads=10 / lookahead_threads=1 / sliced_threads=0 / nr=0 / decimate=1 / interlaced=0 / bluray_compat=0 / stitchable=1 / constrained_intra=0 / bframes=3 / b_pyramid=2 / b_adapt=2 / b_bias=0 / direct=3 / weightb=1 / open_gop=0 / weightp=2 / keyint=48 / keyint_min=25 / scenecut=0 / intra_refresh=0 / rc_lookahead=48 / rc=2pass / mbtree=1 / bitrate=3300 / ratetol=1.0 / qcomp=0.60 / qpmin=0 / qpmax=69 / qpstep=4 / cplxblur=20.0 / qblur=0.5 / vbv_maxrate=4950 / vbv_bufsize=6600 / nal_hrd=none / filler=0 / ip_ratio=1.40 / aq=3:1.00
    Default : Yes
    Forced : No
    Color range : Limited
    Color primaries : BT.709
    Transfer characteristics : BT.709
    Matrix coefficients : BT.709

    Audio #1
    ID : 2
    Format : E-AC-3 JOC
    Format/Info : Enhanced AC-3 with Joint Object Coding
    Commercial name : Dolby Digital Plus with Dolby Atmos
    Codec ID : A_EAC3
    Duration : 54 min 46 s
    Bit rate mode : Constant
    Bit rate : 768 kb/s
    Channel(s) : 6 channels
    Channel layout : L R C LFE Ls Rs
    Sampling rate : 48.0 kHz
    Frame rate : 31.250 FPS (1536 SPF)
    Compression mode : Lossy
    Stream size : 301 MiB (18%)
    Language : English
    Service kind : Complete Main
    Default : Yes
    Forced : No
    Complexity index : 16
    Number of dynamic objects : 15
    Bed channel count : 1 channel
    Bed channel configuration : LFE

    Audio #2
    ID : 3
    Format : E-AC-3
    Format/Info : Enhanced AC-3
    Commercial name : Dolby Digital Plus
    Codec ID : A_EAC3
    Duration : 54 min 46 s
    Bit rate mode : Constant
    Bit rate : 192 kb/s
    Channel(s) : 6 channels
    Channel layout : L R C LFE Ls Rs
    Sampling rate : 48.0 kHz
    Frame rate : 31.250 FPS (1536 SPF)
    Compression mode : Lossy
    Stream size : 75.2 MiB (5%)
    Language : Thai
    Service kind : Complete Main
    Default : No
    Forced : No

    Text #1
    ID : 4
    Format : UTF-8
    Codec ID : S_TEXT/UTF8
    Codec ID/Info : UTF-8 Plain Text
    Duration : 54 min 12 s
    Bit rate : 68 b/s
    Frame rate : 0.113 FPS
    Count of elements : 366
    Stream size : 27.1 KiB (0%)
    Language : Thai
    Default : No
    Forced : No

    Text #2
    ID : 5
    Format : UTF-8
    Codec ID : S_TEXT/UTF8
    Codec ID/Info : UTF-8 Plain Text
    Duration : 51 min 2 s
    Bit rate : 37 b/s
    Frame rate : 0.166 FPS
    Count of elements : 509
    Stream size : 14.0 KiB (0%)
    Language : English
    Default : No
    Forced : No



    Download:filecondo
    Ahsoka.S01E08.Part.Eight.1080p.DSNP.WEB-DL.DDP5.1.Atmos.H.264.mkv
    http://www.filecondo.com/dl.php?f=Ba917f1QOI9a
    Ahsoka.S01E08.Part.Eight.1080p.HS.WEB-DL.DDP5.1.Atmos.H.264-MESSI.mkv
    http://www.filecondo.com/dl.php?f=Wba83f1QOIhQ

    Ahsoka.S01E07.Part.Seven.1080p.HS.WEB-DL.DDP5.1.Atmos.H.264-MESSI.mkv
    http://www.filecondo.com/dl.php?f=pd8b431QLtGp
    Ahsoka.S01E07.Part.Seven.1080p.DSNP.WEB-DL.DDP5.1.Atmos.H.264.mkv
    http://www.filecondo.com/dl.php?f=E740991QLtFv


    Ahsoka.S01E06.Part.Six.1080p.DSNP.WEB-DL.DDP5.1.Atmos.H.264.mkv
    http://www.filecondo.com/dl.php?f=6241a11QIUG2
    Ahsoka.S01E06.Part.Six.Far.Far.Away.1080p.HS.WEB-DL.DDP5.1.Atmos.H.264-MESSI.mkv
    http://www.filecondo.com/dl.php?f=5cb6f61QIUHX


    Ahsoka.S01E05.Part.Five.1080p.HS.WEB-DL.DDP5.1.H.264-MESSI.mkv
    http://www.filecondo.com/dl.php?f=81e3221QGIrz

    Ahsoka.S01E05.Part.Five.1080p.DSNP.WEB-DL.DDP5.1.Atmos.H.264.mkv
    http://www.filecondo.com/dl.php?f=W89e2c1QGngo

    Ahsoka.S01E04.Part.Four.1080p.DSNP.WEB-DL.DDP5.1.Atmos.H.264.mkv
    http://www.filecondo.com/dl.php?f=A1f5e71QDQ4f
    Ahsoka.S01E04.Part.Four.1080p.HS.WEB-DL.DDP5.1.Atmos.H.264-MESSI.mkv
    http://www.filecondo.com/dl.php?f=Ed5b8c1QDN9e

    Ahsoka.S01E03.Part.Three.1080p.HS.WEB-DL.DDP5.1.Atmos.H.264-MESSI.mkv
    http://www.filecondo.com/dl.php?f=333f2f1QBgq8

    Ahsoka.S01E03.Part.Three.1080p.DSNP.WEB-DL.DDP5.1.Atmos.H.264.mkv
    http://www.filecondo.com/dl.php?f=f868251QBgpc


    Ahsoka.S01E02.Part.Two.1080p.HS.WEB-DL.DDP5.1.Atmos.H.264-MESSI.mkv
    http://www.filecondo.com/dl.php?f=s4bed61Qz74J

    Ahsoka.S01E02.Part.Two.1080p.DSNP.WEB-DL.DDP5.1.Atmos.H.264.mkv
    http://www.filecondo.com/dl.php?f=C5c7f11Qz73N

    Ahsoka.S01E01.Part.One.1080p.HS.WEB-DL.DDP5.1.Atmos.H.264-MESSI.mkv
    http://www.filecondo.com/dl.php?f=X1a91b1Qz72O

    Ahsoka.S01E01.Part.One.1080p.DSNP.WEB-DL.DDP5.1.Atmos.H.264.mkv
    http://www.filecondo.com/dl.php?f=lc46e91Qz71S

    Download:037file
    Ahsoka.S01E08.Part.Eight.1080p.DSNP.WEB-DL.DDP5.1.Atmos.H.264.mkv - 2.0 GB

    Ahsoka.S01E07.Part.Seven.1080p.DSNP.WEB-DL.DDP5.1.Atmos.H.264.mkv - 1.9 GB
    Ahsoka.S01E07.Part.Seven.1080p.HS.WEB-DL.DDP5.1.Atmos.H.264-MESSI.mkv - 1.3 GB

    Ahsoka.S01E06.Part.Six.1080p.DSNP.WEB-DL.DDP5.1.Atmos.H.264.mkv - 1.8 GB
    Ahsoka.S01E06.Part.Six.Far.Far.Away.1080p.HS.WEB-DL.DDP5.1.Atmos.H.264-MESSI.mkv - 1.4 GB

    Ahsoka.S01E05.Part.Five.1080p.DSNP.WEB-DL.DDP5.1.Atmos.H.264.mkv - 2.0 GB
    Ahsoka.S01E05.Part.Five.1080p.HS.WEB-DL.DDP5.1.H.264-MESSI.mkv - 1.5 GB
    Ahsoka.S01E04.Part.Four.1080p.DSNP.WEB-DL.DDP5.1.Atmos.H.264.mkv - 1.7 GB
    Ahsoka.S01E04.Part.Four.1080p.HS.WEB-DL.DDP5.1.Atmos.H.264-MESSI.mkv - 1.1 GB

    Ahsoka.S01E03.Part.Three.1080p.DSNP.WEB-DL.DDP5.1.Atmos.H.264.mkv - 1.5 GB
    Ahsoka.S01E03.Part.Three.1080p.HS.WEB-DL.DDP5.1.Atmos.H.264-MESSI.mkv - 1.0 GB

    Ahsoka.S01E01.Part.One.1080p.DSNP.WEB-DL.DDP5.1.Atmos.H.264.mkv - 2.2 GB
    Ahsoka.S01E01.Part.One.1080p.HS.WEB-DL.DDP5.1.Atmos.H.264-MESSI.mkv - 1.6 GB
    Ahsoka.S01E02.Part.Two.1080p.DSNP.WEB-DL.DDP5.1.Atmos.H.264.mkv - 1.8 GB
    Ahsoka.S01E02.Part.Two.1080p.HS.WEB-DL.DDP5.1.Atmos.H.264-MESSI.mkv - 1.3 GB

  2. The Following 3 Users Say Thank You to Duckload.us For This Useful Post:

    noi54 (08-25-2023), petpina2010 (10-05-2023), Wesker_TOT (09-15-2023)

  3. #2
    Member
    สมัครเมื่อ
    Nov 2021
    โพสต์
    49
    Thanks
    0
    Thanked 0 Times in 0 Posts
    ขอบคุณครับ

  4. #3
    Senior Member
    สมัครเมื่อ
    Dec 2013
    โพสต์
    5,725
    Thanks
    7,706
    Thanked 0 Times in 0 Posts
    ขอบคุณครับ...

  5. #4
    Senior Member
    สมัครเมื่อ
    Jul 2013
    โพสต์
    3,549
    Thanks
    0
    Thanked 0 Times in 0 Posts
    ขอบคุณครับ

  6. #5
    Administrators รูปส่วนตัว Duckload.us
    สมัครเมื่อ
    Dec 2010
    โพสต์
    148,074
    Thanks
    7
    Thanked 155,357 Times in 67,772 Posts
    Ahsoka.S01E01-07

  7. #6
    Senior Member รูปส่วนตัว petpina2010
    สมัครเมื่อ
    Jun 2020
    โพสต์
    184
    Thanks
    187
    Thanked 0 Times in 0 Posts
    ขอบคุณครับ

    ช่วยอธิบายคำว่า hs.web กับ dsnp.web แตกต่างกันยังไงบ้างครับ

+ ตอบกลับกระทู้

ข้อมูลกระทู้

Users Browsing this Thread

ในขณะนี้มี 1 ท่านดูกระทู้อยู่. (0 สมาชิกและ 1 ผู้เยี่ยมชม)

     

กฎการโพสต์ข้อความ

  • ท่าน ไม่สามารถ ตั้งกระทู้ใหม่ได้
  • ท่าน ไม่สามารถ ตอบกระทู้ได้
  • ท่าน ไม่สามารถ แนบไฟล์ได้
  • ท่าน ไม่สามารถ แก้ไขข้อความโพสต์ได้
  • BB code สถานะ เปิด
  • Smilies สถานะ เปิด
  • [IMG] สถานะ เปิด
  • HTML สถานะ ปิด