+ ตอบกลับกระทู้
สรุปผลการค้นหา 1 ถึง 2 จากทั้งหมด 2
  1. #1
    Administrators รูปส่วนตัว Duckload.us
    สมัครเมื่อ
    Dec 2010
    โพสต์
    152,106
    Thanks
    7
    Thanked 159,085 Times in 69,585 Posts

    Exclamation [ฝรั่ง]-[Netflix] Who Is Erin Carter? : Season 1 (2023) เอริน คาร์เตอร์คือใคร-WEB-DL.H.264.1080p. [Master]-[พากย์ไทย บรรยายไทย]



    ท่ามกลางแสงแดดที่แผดเผาและทิวทัศน์ที่สวยงามของทะเล เมดิเตอร์เรเนียน แม่ที่มีทักษะการต่อสู้ระดับเทพต้องสู้สุดตัว เพื่อปกป้องลูกสาวจากอดีตที่ตัวเองปกปิดไว้

    Video
    ID : 1
    Format : AVC
    Format/Info : Advanced Video Codec
    Format profile : High@L4
    Format settings : CABAC / 4 Ref Frames
    Format settings, CABAC : Yes
    Format settings, Reference frames : 4 frames
    Codec ID : V_MPEG4/ISO/AVC
    Duration : 54 min 57 s
    Bit rate mode : Variable
    Bit rate : 6 835 kb/s
    Maximum bit rate : 20.0 Mb/s
    Width : 1 920 pixels
    Height : 1 080 pixels
    Display aspect ratio : 16:9
    Frame rate mode : Constant
    Frame rate : 25.000 FPS
    Color space : YUV
    Chroma subsampling : 4:2:0
    Bit depth : 8 bits
    Scan type : Progressive
    Bits/(Pixel*Frame) : 0.132
    Stream size : 2.62 GiB (82%)
    Writing library : x264 core 148 r2727 7d026e8
    Encoding settings : cabac=1 / ref=4 / deblock=1:0:0 / analyse=0x3:0x111 / me=umh / subme=10 / psy=1 / psy_rd=1.00:0.00 / mixed_ref=1 / me_range=120 / chroma_me=1 / trellis=2 / 8x8dct=1 / cqm=0 / deadzone=21,11 / fast_pskip=1 / chroma_qp_offset=-2 / threads=6 / lookahead_threads=1 / sliced_threads=0 / nr=0 / decimate=1 / interlaced=0 / bluray_compat=0 / stitchable=1 / constrained_intra=0 / bframes=16 / b_pyramid=2 / b_adapt=2 / b_bias=0 / direct=3 / weightb=1 / open_gop=0 / weightp=2 / keyint=250 / keyint_min=126 / scenecut=0 / intra_refresh=0 / rc_lookahead=250 / rc=crf / mbtree=1 / crf=16.0 / qcomp=0.50 / qpmin=6 / qpmax=51 / qpstep=4 / vbv_maxrate=20000 / vbv_bufsize=25000 / crf_max=0.0 / nal_hrd=vbr / filler=0 / ip_ratio=1.40 / aq=1:0.80
    Default : Yes
    Forced : No

    Audio #1
    ID : 2
    Format : E-AC-3 JOC
    Format/Info : Enhanced AC-3 with Joint Object Coding
    Commercial name : Dolby Digital Plus with Dolby Atmos
    Codec ID : A_EAC3
    Duration : 53 min 37 s
    Bit rate mode : Constant
    Bit rate : 768 kb/s
    Channel(s) : 6 channels
    Channel layout : L R C LFE Ls Rs
    Sampling rate : 48.0 kHz
    Frame rate : 31.250 FPS (1536 SPF)
    Compression mode : Lossy
    Stream size : 295 MiB (9%)
    Language : English
    Service kind : Complete Main
    Default : Yes
    Forced : No
    Complexity index : 16
    Number of dynamic objects : 15
    Bed channel count : 1 channel
    Bed channel configuration : LFE

    Audio #2
    ID : 3
    Format : E-AC-3 JOC
    Format/Info : Enhanced AC-3 with Joint Object Coding
    Commercial name : Dolby Digital Plus with Dolby Atmos
    Codec ID : A_EAC3
    Duration : 54 min 58 s
    Bit rate mode : Constant
    Bit rate : 768 kb/s
    Channel(s) : 6 channels
    Channel layout : L R C LFE Ls Rs
    Sampling rate : 48.0 kHz
    Frame rate : 31.250 FPS (1536 SPF)
    Compression mode : Lossy
    Stream size : 302 MiB (9%)
    Language : Thai
    Service kind : Complete Main
    Default : No
    Forced : No
    Complexity index : 16
    Number of dynamic objects : 15
    Bed channel count : 1 channel
    Bed channel configuration : LFE

    Text #1
    ID : 4
    Format : UTF-8
    Codec ID : S_TEXT/UTF8
    Codec ID/Info : UTF-8 Plain Text
    Duration : 52 min 59 s
    Bit rate : 7 b/s
    Frame rate : 0.013 FPS
    Count of elements : 42
    Stream size : 2.92 KiB (0%)
    Title : Forced
    Language : Thai
    Default : No
    Forced : Yes

    Text #2
    ID : 5
    Format : UTF-8
    Codec ID : S_TEXT/UTF8
    Codec ID/Info : UTF-8 Plain Text
    Duration : 52 min 59 s
    Bit rate : 116 b/s
    Frame rate : 0.198 FPS
    Count of elements : 630
    Stream size : 45.0 KiB (0%)
    Language : Thai
    Default : No
    Forced : No

    Text #3
    ID : 6
    Format : UTF-8
    Codec ID : S_TEXT/UTF8
    Codec ID/Info : UTF-8 Plain Text
    Duration : 26 min 44 s
    Bit rate : 3 b/s
    Frame rate : 0.013 FPS
    Count of elements : 21
    Stream size : 761 Bytes (0%)
    Title : Forced
    Language : English
    Default : Yes
    Forced : Yes

    Text #4
    ID : 7
    Format : UTF-8
    Codec ID : S_TEXT/UTF8
    Codec ID/Info : UTF-8 Plain Text
    Duration : 52 min 7 s
    Bit rate : 61 b/s
    Frame rate : 0.244 FPS
    Count of elements : 763
    Stream size : 23.3 KiB (0%)
    Title : SDH
    Language : English
    Default : No
    Forced : No

    Menu
    00:00:00.000 : en:Part 01
    00:52:12.450 : en:Credits



    Who.is.Erin.Carter.S01E07.1080p.NF.WEB-DL.DDP5.1.Atmos.H.264-MESSI.mkv
    http://www.filecondo.com/dl.php?f=9fdaf91Qzzln

    Who.is.Erin.Carter.S01E06.1080p.NF.WEB-DL.DDP5.1.Atmos.H.264-MESSI.mkv
    http://www.filecondo.com/dl.php?f=vf3f511Qzzkq

    Who.is.Erin.Carter.S01E05.1080p.NF.WEB-DL.DDP5.1.Atmos.H.264-MESSI.mkv
    http://www.filecondo.com/dl.php?f=zd3aa21Qzzjs

    Who.is.Erin.Carter.S01E04.1080p.NF.WEB-DL.DDP5.1.Atmos.H.264-MESSI.mkv
    http://www.filecondo.com/dl.php?f=mfb8cd1Qzziv

    Who.is.Erin.Carter.S01E03.1080p.NF.WEB-DL.DDP5.1.Atmos.H.264-MESSI.mkv
    http://www.filecondo.com/dl.php?f=z3a71c1Qzzhv

    Who.is.Erin.Carter.S01E02.1080p.NF.WEB-DL.DDP5.1.Atmos.H.264-MESSI.mkv
    http://www.filecondo.com/dl.php?f=Sd06a91Qzzgy

    Who.is.Erin.Carter.S01E01.1080p.NF.WEB-DL.DDP5.1.Atmos.H.264-MESSI.mkv
    http://www.filecondo.com/dl.php?f=Sec7d81QzzfB


    Who.is.Erin.Carter.S01.1080p.NF.WEB-DL.DDP5.1.Atmos.H.264-MESSI.zip - 20.1 GB

  2. #2
    Senior Member
    สมัครเมื่อ
    Jul 2013
    โพสต์
    3,700
    Thanks
    0
    Thanked 0 Times in 0 Posts
    ขอบคุรครับ

+ ตอบกลับกระทู้

ข้อมูลกระทู้

Users Browsing this Thread

ในขณะนี้มี 1 ท่านดูกระทู้อยู่. (0 สมาชิกและ 1 ผู้เยี่ยมชม)

     

กฎการโพสต์ข้อความ

  • ท่าน ไม่สามารถ ตั้งกระทู้ใหม่ได้
  • ท่าน ไม่สามารถ ตอบกระทู้ได้
  • ท่าน ไม่สามารถ แนบไฟล์ได้
  • ท่าน ไม่สามารถ แก้ไขข้อความโพสต์ได้
  • BB code สถานะ เปิด
  • Smilies สถานะ เปิด
  • [IMG] สถานะ เปิด
  • HTML สถานะ ปิด