+ ตอบกลับกระทู้
หน้า 1 จากทั้งหมด 2 หน้า 1 2 หน้าสุดท้ายหน้าสุดท้าย
สรุปผลการค้นหา 1 ถึง 10 จากทั้งหมด 12
  1. #1
    Administrators รูปส่วนตัว Duckload.us
    สมัครเมื่อ
    Dec 2010
    โพสต์
    149,921
    Thanks
    7
    Thanked 156,881 Times in 68,554 Posts

    Exclamation [ฝรั่ง]-[Netflix] One Piece (2023) วันพีซ Season 1 [เสียง:ไทย-อังกฤษ AC-3 5.1 Atmos][บรรยาย: ไทย PGS/SRT-อังกฤษ SRT Netflix]-WEB-DL.H.264.1080p. [From HD-TV]-[พากย์ไทย บรรยายไทย]




    เขามีพลังยางยืด แผนที่ และความมุ่งมั่นอันแรงกล้า แต่ศัตรูที่ร้ายกาจและมหาสมุทรที่เต็มไปด้วยอันตรายส ุดหยั่ง คืออุปสรรคคั่นกลางระหว่างตัวเขาและความฝันที่เป็นรา ชาโจรสลัด

    Video
    ID : 1
    Format : AVC
    Format/Info : Advanced Video Codec
    Format profile : High@L4
    Format settings : CABAC / 4 Ref Frames
    Format settings, CABAC : Yes
    Format settings, Reference fra : 4 frames
    Codec ID : V_MPEG4/ISO/AVC
    Duration : 1 h 4 min
    Bit rate mode : Variable
    Bit rate : 2 154 kb/s
    Maximum bit rate : 20.0 Mb/s
    Width : 1 920 pixels
    Height : 1 080 pixels
    Display aspect ratio : 16:9
    Frame rate mode : Constant
    Frame rate : 23.976 (24000/1001) FPS
    Color space : YUV
    Chroma subsampling : 4:2:0
    Bit depth : 8 bits
    Scan type : Progressive
    Bits/(Pixel*Frame) : 0.043
    Stream size : 993 MiB (61%)
    Writing library : x264 core 148 r2727 7d026e8
    Encoding settings : cabac=1 / ref=4 / deblock=1:0:0 / analyse=0x3:0x111 / me=umh / subme=10 / psy=1 / psy_rd=1.00:0.00 / mixed_ref=1 / me_range=120 / chroma_me=1 / trellis=2 / 8x8dct=1 / cqm=0 / deadzone=21,11 / fast_pskip=1 / chroma_qp_offset=-2 / threads=6 / lookahead_threads=1 / sliced_threads=0 / nr=0 / decimate=1 / interlaced=0 / bluray_compat=0 / stitchable=1 / constrained_intra=0 / bframes=16 / b_pyramid=2 / b_adapt=2 / b_bias=0 / direct=3 / weightb=1 / open_gop=0 / weightp=2 / keyint=240 / keyint_min=121 / scenecut=0 / intra_refresh=0 / rc_lookahead=240 / rc=crf / mbtree=1 / crf=21.0 / qcomp=0.50 / qpmin=6 / qpmax=51 / qpstep=4 / vbv_maxrate=20000 / vbv_bufsize=25000 / crf_max=0.0 / nal_hrd=vbr / filler=0 / ip_ratio=1.40 / aq=1:0.80
    Default : Yes
    Forced : No

    Audio #1
    ID : 2
    Format : E-AC-3
    Format/Info : Enhanced AC-3
    Commercial name : Dolby Digital Plus
    Codec ID : A_EAC3
    Duration : 1 h 4 min
    Bit rate mode : Constant
    Bit rate : 640 kb/s
    Channel(s) : 6 channels
    Channel layout : L R C LFE Ls Rs
    Sampling rate : 48.0 kHz
    Frame rate : 31.250 FPS (1536 SPF)
    Compression mode : Lossy
    Stream size : 295 MiB (18%)
    Title : [Thai-AC-3 5.1]
    Language : Thai
    Service kind : Complete Main
    Default : Yes
    Forced : No

    Audio #2
    ID : 3
    Format : E-AC-3 JOC
    Format/Info : Enhanced AC-3 with Joint Object Coding
    Commercial name : Dolby Digital Plus with Dolby Atmos
    Codec ID : A_EAC3
    Duration : 1 h 2 min
    Bit rate mode : Constant
    Bit rate : 768 kb/s
    Channel(s) : 6 channels
    Channel layout : L R C LFE Ls Rs
    Sampling rate : 48.0 kHz
    Frame rate : 31.250 FPS (1536 SPF)
    Compression mode : Lossy
    Stream size : 342 MiB (21%)
    Title : [English-AC-3 5.1 Atmos]
    Language : English
    Service kind : Complete Main
    Default : No
    Forced : No
    Complexity index : 16
    Number of dynamic objects : 15
    Bed channel count : 1 channel
    Bed channel configuration : LFE

    Text #1
    ID : 4
    Format : PGS
    Muxing mode : zlib
    Codec ID : S_HDMV/PGS
    Codec ID/Info : Picture based subtitle format used on BDs/HD-DVDs
    Duration : 1 h 1 min
    Bit rate : 851 b/s
    Count of elements : 34
    Stream size : 382 KiB (0%)
    Title : [Thai Netflix Forced PGS]
    Language : Thai
    Default : Yes
    Forced : No

    Text #2
    ID : 5
    Format : PGS
    Muxing mode : zlib
    Codec ID : S_HDMV/PGS
    Codec ID/Info : Picture based subtitle format used on BDs/HD-DVDs
    Duration : 1 h 1 min
    Bit rate : 36.0 kb/s
    Count of elements : 1268
    Stream size : 15.9 MiB (1%)
    Title : [Thai Netflix PGS]
    Language : Thai
    Default : No
    Forced : No

    Text #3
    ID : 6
    Format : UTF-8
    Codec ID : S_TEXT/UTF8
    Codec ID/Info : UTF-8 Plain Text
    Duration : 1 h 1 min
    Bit rate : 2 b/s
    Count of elements : 17
    Stream size : 1.03 KiB (0%)
    Title : Thai Forced SRT
    Language : Thai
    Default : No
    Forced : No

    Text #4
    ID : 7
    Format : UTF-8
    Codec ID : S_TEXT/UTF8
    Codec ID/Info : UTF-8 Plain Text
    Duration : 1 h 1 min
    Bit rate : 107 b/s
    Count of elements : 634
    Stream size : 48.7 KiB (0%)
    Title : Thai SRT
    Language : Thai
    Default : No
    Forced : No

    Text #5
    ID : 8
    Format : UTF-8
    Codec ID : S_TEXT/UTF8
    Codec ID/Info : UTF-8 Plain Text
    Duration : 59 min 12 s
    Bit rate : 56 b/s
    Count of elements : 876
    Stream size : 24.5 KiB (0%)
    Title : English SRT
    Language : English
    Default : No
    Forced : No





    Download:filecondo
    One_Piece_(2023)_วันพีซ_S01E08_ร้ายกาจที่สุดในโลกต ะวันออก.1080p.Modified_By_mxn.mkv
    http://www.filecondo.com/dl.php?f=92e8d01QDKmY fix

    One_Piece_(2023)_วันพีซ_S01E07_หญิงสาวผู้มีรอยสักป ลาฉนาก.1080p.Modified_By_mxn.mkv
    http://www.filecondo.com/dl.php?f=Ya03e71QBFXo

    One_Piece_(2023)_วันพีซ_S01E06_เชฟกับเด็กรับใช้.10 80p.Modified_By_mxn.mkv
    http://www.filecondo.com/dl.php?f=43fcb81QBFWq

    One_Piece_(2023)_วันพีซ_S01E05_บาราติเอพร้อมให้บริ การ.1080p.Modified_By_mxn.mkv
    http://www.filecondo.com/dl.php?f=Q95e001QBFVr

    One_Piece_(2023)_วันพีซ_S01E04_โจรสลัดกำลังมา.1080 p.Modified_By_mxn.mkv
    http://www.filecondo.com/dl.php?f=g2cec51QBFUv

    One_Piece_(2023)_วันพีซ_S01E03_เรื่องเล่าเหลือเชื่ อ.1080p.Modified_By_mxn.mkv
    http://www.filecondo.com/dl.php?f=Tf26ad1QBFTw

    One_Piece_(2023)_วันพีซ_S01E02_โจรสลัดหมวกฟาง.1080 p.Modified_By_mxn.mkv
    http://www.filecondo.com/dl.php?f=L5925e1QBFSy

    One_Piece_(2023)_วันพีซ_S01E01_รุ่งสางของการผจญภัย .1080p.Modified_By_mxn.mkv
    http://www.filecondo.com/dl.php?f=Na52df1QBFRB

    Download:037file
    One Piece (2023) วันพีซ S01E01 รุ่งสางของการผจญภัย.1080p.Modified By mxn.mkv - 1.6 GB
    One Piece (2023) วันพีซ S01E02 โจรสลัดหมวกฟาง.1080p.Modified By mxn.mkv - 1.5 GB
    One Piece (2023) วันพีซ S01E03 เรื่องเล่าเหลือเชื่อ.1080p.Modified By mxn.mkv - 1.5 GB
    One Piece (2023) วันพีซ S01E04 โจรสลัดกำลังมา.1080p.Modified By mxn.mkv - 1.7 GB
    One Piece (2023) วันพีซ S01E05 บาราติเอพร้อมให้บริการ.1080p.Modified By mxn.mkv - 1.3 GB
    One Piece (2023) วันพีซ S01E06 เชฟกับเด็กรับใช้.1080p.Modified By mxn.mkv - 1.3 GB
    One Piece (2023) วันพีซ S01E07 หญิงสาวผู้มีรอยสักปลาฉนาก.1080p.Modified By mxn.mkv - 1.5 GB
    One Piece (2023) วันพีซ S01E08 ร้ายกาจที่สุดในโลกตะวันออก.1080p.Modified By mxn.mkv - 1.2 GB fix

  2. The Following 4 Users Say Thank You to Duckload.us For This Useful Post:

    Nam1499 (02-25-2024), petpina2010 (09-01-2023), sawara (08-31-2023), Wesker_TOT (09-01-2023)

  3. #2
    Senior Member
    สมัครเมื่อ
    Dec 2013
    โพสต์
    990
    Thanks
    952
    Thanked 0 Times in 0 Posts
    ขอบคุณครับบ

  4. #3
    Senior Member
    สมัครเมื่อ
    May 2011
    โพสต์
    111
    Thanks
    39
    Thanked 0 Times in 0 Posts
    Filecondo part 8 มีปัญหาหรือเปล่าครับ

  5. #4
    Senior Member
    สมัครเมื่อ
    Oct 2013
    โพสต์
    2,512
    Thanks
    0
    Thanked 0 Times in 0 Posts
    ขอบคุณครับ

  6. #5
    Senior Member
    สมัครเมื่อ
    May 2012
    โพสต์
    2,011
    Thanks
    0
    Thanked 0 Times in 0 Posts
    ขอบคุณครับ

  7. #6
    Junior Member
    สมัครเมื่อ
    Apr 2021
    โพสต์
    22
    Thanks
    0
    Thanked 0 Times in 0 Posts
    จะมีแบบ 4k ไหมครับ ถ้ามีผมขอด้วยนะครับ

  8. #7
    Senior Member
    สมัครเมื่อ
    Dec 2013
    โพสต์
    6,002
    Thanks
    7,984
    Thanked 0 Times in 0 Posts
    ขอบคุณครับ...

  9. #8
    Senior Member รูปส่วนตัว petpina2010
    สมัครเมื่อ
    Jun 2020
    โพสต์
    235
    Thanks
    239
    Thanked 0 Times in 0 Posts
    ขอบคุณครับ

  10. #9
    Member
    สมัครเมื่อ
    Nov 2014
    โพสต์
    85
    Thanks
    6
    Thanked 0 Times in 0 Posts
    จะมีตอน 8 ver แก้เสียงไม่ตรงมั้ยครับ

  11. #10
    Administrators รูปส่วนตัว Duckload.us
    สมัครเมื่อ
    Dec 2010
    โพสต์
    149,921
    Thanks
    7
    Thanked 156,881 Times in 68,554 Posts
    อ้างอิง โพสต์ต้นฉบับโดยคุณ soneed ดูโพสต์
    จะมีตอน 8 ver แก้เสียงไม่ตรงมั้ยครับ
    เรียนแจ้ง แก้ไขแล้วครับ ขออภัยที่ล่าช้าครับ

+ ตอบกลับกระทู้
หน้า 1 จากทั้งหมด 2 หน้า 1 2 หน้าสุดท้ายหน้าสุดท้าย

ข้อมูลกระทู้

Users Browsing this Thread

ในขณะนี้มี 1 ท่านดูกระทู้อยู่. (0 สมาชิกและ 1 ผู้เยี่ยมชม)

     

กฎการโพสต์ข้อความ

  • ท่าน ไม่สามารถ ตั้งกระทู้ใหม่ได้
  • ท่าน ไม่สามารถ ตอบกระทู้ได้
  • ท่าน ไม่สามารถ แนบไฟล์ได้
  • ท่าน ไม่สามารถ แก้ไขข้อความโพสต์ได้
  • BB code สถานะ เปิด
  • Smilies สถานะ เปิด
  • [IMG] สถานะ เปิด
  • HTML สถานะ ปิด