+ ตอบกลับกระทู้
สรุปผลการค้นหา 1 ถึง 3 จากทั้งหมด 3
  1. #1
    Administrators รูปส่วนตัว Duckload.us
    สมัครเมื่อ
    Dec 2010
    โพสต์
    149,980
    Thanks
    7
    Thanked 157,018 Times in 68,590 Posts

    Exclamation [เกาหลี]-[• • ใหม่ร้อนๆ เสียงไทยโรง • • ] The Moon (2023) / ปฏิบัติการพิชิตจันทร์ [Thr.1080p.HDRip] [เสียงไทยโรง + เกาหลี] [No Sub] • • ไฟล์ 1080p คุณภาพสูง • •



    Quote:
    เมื่อภารกิจส่งมนุษย์ไปยังดวงจันทร์ครั้งแรกของเกาหล ีสิ้นสุดลงด้วยหายนะอันน่าสลดใจหลังเกิดการระเบิดขึ้ นบนยาน 7 ปีต่อมา ได้มีการปล่อยยานอวกาศอีกครั้งและประสบความสำเร็จอย่ างภาคภูมิใจ แต่หายนะก็ได้เกิดขึ้นอีกครั้งเมื่อลมสุริยะที่เกิดข ึ้นอย่างรุนแรง ทำให้การทำงานของยานผิดปกติ ส่งผลให้ “ซอนอู” (โดคยองซู) นักบินอวกาศติดอยู่บนดวงจันทร์เพียงลําพังด้วยระยะทา งกว่า 384,000 กิโลเมตร จากพื้นโลก และต้องเผชิญกับหายนะร้ายแรงอีกครั้ง ขณะที่ “ดร.คิม” (ซอลคยองกู) อดีตกรรมการผู้จัดการศูนย์อวกาศฯ พยายามหาทุกวิถีทางเพื่อพาซอนอูกลับบ้านอย่างปลอดภัย แต่ในทางกลับกัน “มุนยอง” (คิมฮีแอ) ผู้อํานวยการทั่วไปของสถานีอวกาศแห่งชาติและองค์การบ ริหารอวกาศกลับมีความลับบางอย่างซ่อนอยู่






    Quote:
    General
    Unique ID : 43097833786467747267622056143165370487 (0x206C5742C81EF69BBF5988B5A8E4B077)
    Complete name : E:The Moon (2023) 1080p.HDRip.mkv
    Format : Matroska
    Format version : Version 4 / Version 2
    File size : 5.14 GiB
    Duration : 2 h 9 min
    Overall bit rate : 5 695 kb/s
    Movie name : The Moon 2023 1080p HDRip
    Encoded date : UTC 2023-09-02 05:29:11
    Writing application : mkvmerge v79.0 ('Funeral Pyres') 64-bit
    Writing library : libebml v1.4.4 + libmatroska v1.7.1
    Cover : Yes
    Attachments : cover

    Video
    ID : 1
    Format : AVC
    Format/Info : Advanced Video Codec
    Format profile : Main@L4
    Format settings : CABAC / 1 Ref Frames
    Format settings, CABAC : Yes
    Format settings, ReFrames : 1 frame
    Format settings, GOP : M=1, N=25
    Codec ID : V_MPEG4/ISO/AVC
    Duration : 2 h 9 min
    Bit rate mode : Constant
    Bit rate : 5 249 kb/s
    Width : 1 920 pixels
    Height : 1 012 pixels
    Display aspect ratio : 1.897
    Frame rate mode : Constant
    Frame rate : 23.976 (24000/1001) FPS
    Color space : YUV
    Chroma subsampling : 4:2:0
    Bit depth : 8 bits
    Scan type : Progressive
    Bits/(Pixel*Frame) : 0.113
    Stream size : 4.73 GiB (92%)
    Title : The Moon 2023 1080p HDRip
    Language : Korean
    Default : Yes
    Forced : No

    Audio #1
    ID : 2
    Format : AAC
    Format/Info : Advanced Audio Codec
    Format profile : LC
    Codec ID : A_AAC-2
    Duration : 2 h 9 min
    Bit rate : 254 kb/s
    Channel(s) : 2 channels
    Channel positions : Front: L R
    Sampling rate : 44.1 kHz
    Frame rate : 43.066 FPS (1024 SPF)
    Compression mode : Lossy
    Stream size : 234 MiB (4%)
    Title : Thr.AAC.2.0_256 kbs
    Language : Thai
    Default : Yes
    Forced : No

    Audio #2
    ID : 3
    Format : AC-3
    Format/Info : Audio Coding 3
    Codec ID : A_AC3
    Duration : 2 h 9 min
    Bit rate mode : Constant
    Bit rate : 192 kb/s
    Channel(s) : 2 channels
    Channel positions : Front: L R
    Sampling rate : 48.0 kHz
    Frame rate : 31.250 FPS (1536 SPF)
    Bit depth : 16 bits
    Compression mode : Lossy
    Stream size : 177 MiB (3%)
    Title : Kor.2.0.AC3.192k
    Language : Thai
    Service kind : Complete Main
    Default : Yes
    Forced : No


    Download:filecondo
    http://www.filecondo.com/dl.php?f=B188321QBGNR

    Download:037file
    https://037file.com/7cos07l6yjh5

  2. The Following 2 Users Say Thank You to Duckload.us For This Useful Post:

    noi54 (09-11-2023), sawara (09-11-2023)

  3. #2
    Senior Member
    สมัครเมื่อ
    Dec 2013
    โพสต์
    990
    Thanks
    952
    Thanked 0 Times in 0 Posts
    ขอบคุณครับบ

  4. #3
    Senior Member
    สมัครเมื่อ
    Jul 2013
    โพสต์
    3,644
    Thanks
    0
    Thanked 0 Times in 0 Posts
    ขอบคุรครับ

+ ตอบกลับกระทู้

ข้อมูลกระทู้

Users Browsing this Thread

ในขณะนี้มี 1 ท่านดูกระทู้อยู่. (0 สมาชิกและ 1 ผู้เยี่ยมชม)

     

กฎการโพสต์ข้อความ

  • ท่าน ไม่สามารถ ตั้งกระทู้ใหม่ได้
  • ท่าน ไม่สามารถ ตอบกระทู้ได้
  • ท่าน ไม่สามารถ แนบไฟล์ได้
  • ท่าน ไม่สามารถ แก้ไขข้อความโพสต์ได้
  • BB code สถานะ เปิด
  • Smilies สถานะ เปิด
  • [IMG] สถานะ เปิด
  • HTML สถานะ ปิด