+ ตอบกลับกระทู้
สรุปผลการค้นหา 1 ถึง 6 จากทั้งหมด 6
  1. #1
    Administrators รูปส่วนตัว Duckload.us
    สมัครเมื่อ
    Dec 2010
    โพสต์
    146,397
    Thanks
    7
    Thanked 153,463 Times in 66,848 Posts

    Exclamation [ฝรั่ง]-The Little Mermaid (2023) [1080p WEB-DL]-[เสียง: ไทย DD+ 5.1 + อังกฤษ DD+ Atmos 5.1]-[Sub: ไทย + อังกฤษ SRT]-WEB-DL.H.264.1080p. [Master]-[พากย์ไทย บรรยายไทย]



    -เรื่องย่อ-
    เรื่องราวความรักสุดคลาสสิคของ แอเรียล นางเงือกสาวผู้งดงามและเปี่ยมไปด้วยสปิริตการผจญภัย ลูกสาวคนเล็กตัวแสบของ คิงไตรตัน การค้นหาความจริงเกี่ยวกับโลกเหนือสมุทรของแอเรียล และเมื่อไปเยือนยังโลกมนุษย์ก็ได้ตกหลุมรักกับ เจ้าชายอีริค ผู้ห้าวหาญ อย่างไรก็ตามกฎของโลกใต้สมุทรได้ห้ามนางเงือกมีปฏิสั มพันธ์กับมนุษย์ แอเรียลที่ต้องการทำตามเสียงหัวใจของเธอ จึงได้ร่วมมือกับ เออร์ซูล่า มารร้ายแห่งท้องทะเล ที่จะทำให้เธอได้สัมผัสชีวิตบนบก แต่ท้ายที่สุดก็ทำให้ชีวิตของเธอและมงกุฎของพ่อตกอยู ่ในอันตราย

    Video
    ID : 1
    Format : AVC
    Format/Info : Advanced Video Codec
    Format profile : High@L4
    Format settings : CABAC / 4 Ref Frames
    Format settings, CABAC : Yes
    Format settings, Reference frames : 4 frames
    Codec ID : V_MPEG4/ISO/AVC
    Duration : 2 h 15 min
    Bit rate : 8 000 kb/s
    Width : 1 920 pixels
    Height : 1 080 pixels
    Display aspect ratio : 16:9
    Frame rate mode : Constant
    Frame rate : 23.976 (24000/1001) FPS
    Color space : YUV
    Chroma subsampling : 4:2:0
    Bit depth : 8 bits
    Scan type : Progressive
    Bits/(Pixel*Frame) : 0.161
    Stream size : 7.50 GiB (89%)
    Writing library : x264 core 164 r3094 bfc87b7
    Encoding settings : cabac=1 / ref=4 / deblock=1:-1:-1 / analyse=0x3:0x133 / me=umh / subme=9 / psy=1 / psy_rd=1.00:0.15 / mixed_ref=1 / me_range=16 / chroma_me=1 / trellis=2 / 8x8dct=1 / cqm=0 / deadzone=21,11 / fast_pskip=1 / chroma_qp_offset=-3 / threads=12 / lookahead_threads=1 / sliced_threads=0 / nr=0 / decimate=1 / interlaced=0 / bluray_compat=0 / stitchable=1 / constrained_intra=0 / bframes=3 / b_pyramid=2 / b_adapt=2 / b_bias=0 / direct=3 / weightb=1 / open_gop=0 / weightp=2 / keyint=48 / keyint_min=4 / scenecut=0 / intra_refresh=0 / rc_lookahead=48 / rc=abr / mbtree=1 / bitrate=8000 / ratetol=1.0 / qcomp=0.60 / qpmin=0 / qpmax=69 / qpstep=4 / vbv_maxrate=8800 / vbv_bufsize=16000 / nal_hrd=none / filler=0 / ip_ratio=1.40 / aq=1:1.00
    Language : English
    Default : Yes
    Forced : No
    Color range : Limited
    Color primaries : BT.709
    Transfer characteristics : BT.709
    Matrix coefficients : BT.709

    Audio #1
    ID : 2
    Format : E-AC-3 JOC
    Format/Info : Enhanced AC-3 with Joint Object Coding
    Commercial name : Dolby Digital Plus with Dolby Atmos
    Codec ID : A_EAC3
    Duration : 2 h 15 min
    Bit rate mode : Constant
    Bit rate : 768 kb/s
    Channel(s) : 6 channels
    Channel layout : L R C LFE Ls Rs
    Sampling rate : 48.0 kHz
    Frame rate : 31.250 FPS (1536 SPF)
    Compression mode : Lossy
    Stream size : 743 MiB (9%)
    Title : English (DD+ Atmos 5.1 - Movies Anywhere)
    Language : English
    Service kind : Complete Main
    Default : No
    Forced : No
    Complexity index : 16
    Number of dynamic objects : 15
    Bed channel count : 1 channel
    Bed channel configuration : LFE

    Audio #2
    ID : 3
    Format : E-AC-3
    Format/Info : Enhanced AC-3
    Commercial name : Dolby Digital Plus
    Codec ID : A_EAC3
    Duration : 2 h 15 min
    Bit rate mode : Constant
    Bit rate : 192 kb/s
    Channel(s) : 6 channels
    Channel layout : L R C LFE Ls Rs
    Sampling rate : 48.0 kHz
    Frame rate : 31.250 FPS (1536 SPF)
    Compression mode : Lossy
    Delay relative to video : 1 s 0 ms
    Stream size : 186 MiB (2%)
    Title : Thai (DD+ 5.1 - Hotstar)
    Language : Thai
    Service kind : Complete Main
    Default : Yes
    Forced : No

    Text #1
    ID : 4
    Format : UTF-8
    Codec ID : S_TEXT/UTF8
    Codec ID/Info : UTF-8 Plain Text
    Duration : 2 h 6 min
    Bit rate : 57 b/s
    Frame rate : 0.242 FPS
    Count of elements : 1845
    Stream size : 53.1 KiB (0%)
    Title : English (SRT - Movies Anywhere)
    Language : English
    Default : No
    Forced : No

    Text #2
    ID : 5
    Format : UTF-8
    Codec ID : S_TEXT/UTF8
    Codec ID/Info : UTF-8 Plain Text
    Duration : 2 h 13 min
    Bit rate : 120 b/s
    Frame rate : 0.231 FPS
    Count of elements : 1850
    Stream size : 118 KiB (0%)
    Title : Thai (SRT - Hotstar)
    Language : Thai
    Default : Yes
    Forced : No

    Menu
    00:00:00.000 : en:Chapter 01
    00:04:00.699 : en:Chapter 02
    00:07:06.259 : en:Chapter 03
    00:10:54.654 : en:Chapter 04
    00:13:09.539 : en:Chapter 05
    00:16:39.332 : en:Chapter 06
    00:20:54.295 : en:Chapter 07
    00:28:46.101 : en:Chapter 08
    00:32:42.671 : en:Chapter 09
    00:38:15.754 : en:Chapter 10
    00:43:31.277 : en:Chapter 11
    00:49:18.333 : en:Chapter 12
    01:00:24.124 : en:Chapter 13
    01:08:08.171 : en:Chapter 14
    01:17:02.163 : en:Chapter 15
    01:22:43.963 : en:Chapter 16
    01:29:10.350 : en:Chapter 17
    01:31:19.854 : en:Chapter 18
    01:36:08.852 : en:Chapter 19
    01:39:50.490 : en:Chapter 20
    01:42:57.260 : en:Chapter 21
    01:47:04.299 : en:Chapter 22
    01:56:03.588 : en:Chapter 23
    01:59:40.847 : en:Chapter 24
    02:01:03.555 : en:Chapter 25
    02:05:50.425 : en:Chapter 26






    Download:filecondo
    http://www.filecondo.com/dl.php?f=9ea2a61QDRkY

    Download:037file
    The.Little.Mermaid.2023.1080p.MA.WEB-DL.DDP5.1.Atmos.H.264.mkv - 8.4 GB

  2. The Following 7 Users Say Thank You to Duckload.us For This Useful Post:

    bigbang06 (09-06-2023), Jodz14 (09-08-2023), kappa (09-20-2023), mettset (09-07-2023), noi54 (09-08-2023), petpina2010 (09-07-2023), Wesker_TOT (09-07-2023)

  3. #2
    Senior Member
    สมัครเมื่อ
    Jul 2012
    โพสต์
    8,415
    Thanks
    0
    Thanked 0 Times in 0 Posts
    ขอบคุณมากจ้า

  4. #3
    Senior Member
    สมัครเมื่อ
    Dec 2013
    โพสต์
    5,427
    Thanks
    7,411
    Thanked 0 Times in 0 Posts
    ขอบคุณครับ...

  5. #4
    Senior Member รูปส่วนตัว petpina2010
    สมัครเมื่อ
    Jun 2020
    โพสต์
    139
    Thanks
    131
    Thanked 0 Times in 0 Posts
    ขอบคุณครับ

  6. #5
    Junior Member
    สมัครเมื่อ
    May 2016
    โพสต์
    5
    Thanks
    4
    Thanked 0 Times in 0 Posts
    รบกวนแอดดูให้ด้วยครับ โหลดไม่ได้ ติดให้ใส่ password

  7. #6
    Administrators รูปส่วนตัว Duckload.us
    สมัครเมื่อ
    Dec 2010
    โพสต์
    146,397
    Thanks
    7
    Thanked 153,463 Times in 66,848 Posts
    Pass : แก้ไขแล้วครับ

+ ตอบกลับกระทู้

ข้อมูลกระทู้

Users Browsing this Thread

ในขณะนี้มี 1 ท่านดูกระทู้อยู่. (0 สมาชิกและ 1 ผู้เยี่ยมชม)

     

กฎการโพสต์ข้อความ

  • ท่าน ไม่สามารถ ตั้งกระทู้ใหม่ได้
  • ท่าน ไม่สามารถ ตอบกระทู้ได้
  • ท่าน ไม่สามารถ แนบไฟล์ได้
  • ท่าน ไม่สามารถ แก้ไขข้อความโพสต์ได้
  • BB code สถานะ เปิด
  • Smilies สถานะ เปิด
  • [IMG] สถานะ เปิด
  • HTML สถานะ ปิด