+ ตอบกลับกระทู้
สรุปผลการค้นหา 1 ถึง 3 จากทั้งหมด 3
  1. #1
    Administrators รูปส่วนตัว Duckload.us
    สมัครเมื่อ
    Dec 2010
    โพสต์
    149,921
    Thanks
    7
    Thanked 156,886 Times in 68,557 Posts

    Exclamation [ฝรั่ง]-Elemental (2023) [2160p Hybrid WEB-DL]-[เสียง: ไทย DD+ 5.1 + อังกฤษ DD+ Atmos 5.1]-[Sub: ไทย + อังกฤษ SRT]-Encode.H.265.2160p. [Master]-[พากย์ไทย บรรยายไทย]



    -เรื่องย่อ-
    เรื่องราวของ ธาตุมหานคร (Element City) ซึ่งมีชาว ดิน น้ำ ลมและไฟ อาศัยอยู่ร่วมกัน แอนิเมชันเรื่องนี้ จะพาผู้ชมไปพบกับ เอ็มเบอร์ (Ember) สาวแก่น หัวไว ไฟแรง ที่เป็นเพื่อนกับ เวด (Wade) หนุ่มร่าเริง ที่ใช้ชีวิตแบบปล่อยจอยลอยลมในทุกสถานการณ์ และเข้ามาเปลี่ยนทัศนคติต่อโลกที่พวกเขาอาศัยอยู่

    Video
    ID : 1
    Format : HEVC
    Format/Info : High Efficiency Video Coding
    Format profile : Main 10@L5@High
    HDR format : Dolby Vision, Version 1.0, dvhe.08.06, BL+RPU, HDR10 compatible / SMPTE ST 2086, HDR10 compatible
    Codec ID : V_MPEGH/ISO/HEVC
    Duration : 1 h 41 min
    Bit rate : 24.8 Mb/s
    Width : 3 840 pixels
    Height : 2 160 pixels
    Display aspect ratio : 16:9
    Frame rate mode : Constant
    Frame rate : 23.976 (24000/1001) FPS
    Color space : YUV
    Chroma subsampling : 4:2:0 (Type 2)
    Bit depth : 10 bits
    Bits/(Pixel*Frame) : 0.125
    Stream size : 17.5 GiB (96%)
    Language : English
    Default : Yes
    Forced : No
    Color range : Limited
    Color primaries : BT.2020
    Transfer characteristics : PQ
    Matrix coefficients : BT.2020 non-constant
    Mastering display color primar : BT.2020
    Mastering display luminance : min: 0.0001 cd/m2, max: 1000 cd/m2
    Maximum Content Light Level : 432 cd/m2
    Maximum Frame-Average Light Le : 244 cd/m2

    Audio #1
    ID : 2
    Format : E-AC-3 JOC
    Format/Info : Enhanced AC-3 with Joint Object Coding
    Commercial name : Dolby Digital Plus with Dolby Atmos
    Codec ID : A_EAC3
    Duration : 1 h 41 min
    Bit rate mode : Constant
    Bit rate : 768 kb/s
    Channel(s) : 6 channels
    Channel layout : L R C LFE Ls Rs
    Sampling rate : 48.0 kHz
    Frame rate : 31.250 FPS (1536 SPF)
    Compression mode : Lossy
    Stream size : 557 MiB (3%)
    Title : English (DD+ Atmos 5.1 - Movies Anywhere)
    Language : English
    Service kind : Complete Main
    Default : No
    Forced : No
    Complexity index : 16
    Number of dynamic objects : 15
    Bed channel count : 1 channel
    Bed channel configuration : LFE

    Audio #2
    ID : 3
    Format : E-AC-3
    Format/Info : Enhanced AC-3
    Commercial name : Dolby Digital Plus
    Codec ID : A_EAC3
    Duration : 1 h 41 min
    Bit rate mode : Constant
    Bit rate : 192 kb/s
    Channel(s) : 6 channels
    Channel layout : L R C LFE Ls Rs
    Sampling rate : 48.0 kHz
    Frame rate : 31.250 FPS (1536 SPF)
    Compression mode : Lossy
    Stream size : 139 MiB (1%)
    Title : Thai (DD+ 5.1 - Hotstar)
    Language : Thai
    Service kind : Complete Main
    Default : Yes
    Forced : No

    Text #1
    ID : 4
    Format : UTF-8
    Codec ID : S_TEXT/UTF8
    Codec ID/Info : UTF-8 Plain Text
    Duration : 1 h 33 min
    Bit rate : 53 b/s
    Frame rate : 0.252 FPS
    Count of elements : 1407
    Stream size : 36.6 KiB (0%)
    Title : English (SRT - Movies Anywhere)
    Language : English
    Default : No
    Forced : No

    Text #2
    ID : 5
    Format : UTF-8
    Codec ID : S_TEXT/UTF8
    Codec ID/Info : UTF-8 Plain Text
    Duration : 1 h 38 min
    Bit rate : 120 b/s
    Frame rate : 0.211 FPS
    Count of elements : 1249
    Stream size : 87.1 KiB (0%)
    Title : Thai (SRT - Hotstar)
    Language : Thai
    Default : Yes
    Forced : No

    Menu
    00:00:00.000 : en:Chapter 01
    00:08:15.620 : en:Chapter 02
    00:11:11.171 : en:Chapter 03
    00:14:24.572 : en:Chapter 04
    00:18:14.386 : en:Chapter 05
    00:21:24.743 : en:Chapter 06
    00:22:54.916 : en:Chapter 07
    00:25:24.232 : en:Chapter 08
    00:26:11.196 : en:Chapter 09
    00:31:29.222 : en:Chapter 10
    00:32:33.370 : en:Chapter 11
    00:35:54.237 : en:Chapter 12
    00:38:32.020 : en:Chapter 13
    00:42:43.188 : en:Chapter 14
    00:47:12.123 : en:Chapter 15
    00:51:35.637 : en:Chapter 16
    00:58:51.531 : en:Chapter 17
    01:02:46.266 : en:Chapter 18
    01:05:08.575 : en:Chapter 19
    01:09:46.019 : en:Chapter 20
    01:13:47.594 : en:Chapter 21
    01:18:00.597 : en:Chapter 22
    01:19:22.262 : en:Chapter 23
    01:24:23.271 : en:Chapter 24
    01:28:28.516 : en:Chapter 25
    01:31:38.415 : en:Chapter 26
    01:33:57.053 : en:Chapter 27





    Download:filecondo
    http://www.filecondo.com/dl.php?f=Xfce771QGnL8

    Download:037file
    https://037file.com/jp1q5vs0q4it

  2. The Following User Says Thank You to Duckload.us For This Useful Post:

    Wesker_TOT (09-15-2023)

  3. #2
    Senior Member
    สมัครเมื่อ
    Dec 2013
    โพสต์
    6,002
    Thanks
    7,984
    Thanked 0 Times in 0 Posts
    ขอบคุณครับ...

  4. #3
    Senior Member
    สมัครเมื่อ
    Jul 2013
    โพสต์
    3,644
    Thanks
    0
    Thanked 0 Times in 0 Posts
    ขอบคุณครับ

+ ตอบกลับกระทู้

ข้อมูลกระทู้

Users Browsing this Thread

ในขณะนี้มี 1 ท่านดูกระทู้อยู่. (0 สมาชิกและ 1 ผู้เยี่ยมชม)

     

กฎการโพสต์ข้อความ

  • ท่าน ไม่สามารถ ตั้งกระทู้ใหม่ได้
  • ท่าน ไม่สามารถ ตอบกระทู้ได้
  • ท่าน ไม่สามารถ แนบไฟล์ได้
  • ท่าน ไม่สามารถ แก้ไขข้อความโพสต์ได้
  • BB code สถานะ เปิด
  • Smilies สถานะ เปิด
  • [IMG] สถานะ เปิด
  • HTML สถานะ ปิด