+ ตอบกลับกระทู้
สรุปผลการค้นหา 1 ถึง 5 จากทั้งหมด 5

Hybrid View

  1. #1
    Administrators รูปส่วนตัว Duckload.us
    สมัครเมื่อ
    Dec 2010
    โพสต์
    149,953
    Thanks
    7
    Thanked 156,981 Times in 68,585 Posts

    Exclamation [ญี่ปุ่น]-[เสียงโรงชัดมาก]The First Slam Dunk เดอะ เฟิสต์ สแลมดังก์ [พากย์ไทยโรง-สเปน][ซับสเปน]-HDTV.H.264.1080p. [หนังซูม]-[พากย์ไทยโรง]



    เรื่องย่อ
    มิยางิ เรียวตะ พอยต์การ์ดจ่ายความเร็วสูงของโชโฮคุ ที่มักจะเล่นด้วยมันสมองและความเร็วปานสายฟ้าแลบ ปั่นป่วนคู่ต่อสู้ด้วยความสุขุมรอบคอบ เรียวตะเกิดและเติบโตในโอกินาว่า มีพี่ชายที่แก่กว่าสามปี และได้ตามรอยพี่ชายของเขาซึ่งเป็นผู้เล่นท้องถิ่นที่ มีชื่อเสียงตั้งแต่อายุยังน้อย เช่นเดียวกับพี่ชาย เรียวตะ ก็ชื่นชอบบาสเก็ตบอลเช่นกัน ในชั้นมัธยมศึกษาปีที่ 2 เรียวตะได้ร่วมทีมบาสเก็ตบอลของโรงเรียนมัธยมโชโฮคุ ร่วมกับซากุรางิ รุคาว่า อาคางิ และมิตซุย ขณะที่พวกเขาเข้าร่วมในการแข่งขันชิงแชมป์แห่งชาติระ หว่างโรงเรียนมัธยมปลาย และตอนนี้พวกเขากำลังจะท้าทายแชมป์เก่าอย่างโรงเรียน เทคโนซังโน



    ปล่อยทั้ง 2 ช่องทาง siambit,tt-torrent

    General
    Unique ID : 322090953770753515631967354745661340690 (0xF2507615AE78CFE0B5D3E4B9274ABC12)
    Complete name : D:2The.First.Slam.Dunk.2022.1080p.HDTS.x264.THR.re zero235789.mkv
    Format : Matroska
    Format version : Version 4
    File size : 2.25 GiB
    Duration : 2 h 1 min
    Overall bit rate mode : Variable
    Overall bit rate : 2 658 kb/s
    Movie name : The.First.Slam.Dunk.2022.1080p.HDTS.x264.THR.rezer o235789
    Encoded date : UTC 2023-09-06 08:53:06
    Writing application : mkvmerge v55.0.0 ('Waiting For Space') 64-bit
    Writing library : libebml v1.4.2 + libmatroska v1.6.4
    Cover : Yes
    Attachments : cover.jpg

    Video
    ID : 1
    Format : AVC
    Format/Info : Advanced Video Codec
    Format profile : High@L4
    Format settings : CABAC / 1 Ref Frames
    Format settings, CABAC : Yes
    Format settings, Reference fra : 1 frame
    Format settings, GOP : M=1, N=30
    Codec ID : V_MPEG4/ISO/AVC
    Duration : 2 h 1 min
    Bit rate : 2 075 kb/s
    Width : 1 920 pixels
    Height : 1 080 pixels
    Display aspect ratio : 16:9
    Frame rate mode : Constant
    Frame rate : 30.000 FPS
    Color space : YUV
    Chroma subsampling : 4:2:0
    Bit depth : 8 bits
    Scan type : Progressive
    Bits/(Pixel*Frame) : 0.033
    Stream size : 1.75 GiB (78%)
    Language : Japanese
    Default : Yes
    Forced : No
    Color range : Limited
    Color primaries : BT.709
    Transfer characteristics : BT.709
    Matrix coefficients : BT.709

    Audio #1
    ID : 2
    Format : FLAC
    Format/Info : Free Lossless Audio Codec
    Codec ID : A_FLAC
    Duration : 2 h 1 min
    Bit rate mode : Variable
    Bit rate : 446 kb/s
    Channel(s) : 2 channels
    Channel layout : L R
    Sampling rate : 48.0 kHz
    Frame rate : 11.719 FPS (4096 SPF)
    Bit depth : 16 bits
    Compression mode : Lossless
    Stream size : 386 MiB (17%)
    Title : Thai(Rong)By.rezero235789
    Writing library : libFLAC 20080709 (UTC 2008-07-09)
    Language : Thai
    Default : Yes
    Forced : Yes

    Audio #2
    ID : 3
    Format : AAC LC
    Format/Info : Advanced Audio Codec Low Complexity
    Codec ID : A_AAC-2
    Duration : 2 h 1 min
    Bit rate : 128 kb/s
    Channel(s) : 2 channels
    Channel layout : L R
    Sampling rate : 44.1 kHz
    Frame rate : 43.066 FPS (1024 SPF)
    Compression mode : Lossy
    Stream size : 111 MiB (5%)
    Title : Spanish
    Language : Spanish
    Default : No
    Forced : No

    Text
    ID : 4
    Format : UTF-8
    Codec ID : S_TEXT/UTF8
    Codec ID/Info : UTF-8 Plain Text
    Duration : 1 h 57 min
    Bit rate : 0 b/s
    Count of elements : 31
    Stream size : 635 Bytes (0%)
    Title : Spanish
    Language : Spanish
    Default : No
    Forced : No

    Download:filecondo
    http://www.filecondo.com/dl.php?f=V3d7431QGLAa

    Download:037file
    https://037file.com/k5bogxbg612z

  2. The Following User Says Thank You to Duckload.us For This Useful Post:

    Wesker_TOT (09-24-2023)

  3. #2
    Senior Member
    สมัครเมื่อ
    Dec 2013
    โพสต์
    6,004
    Thanks
    7,987
    Thanked 0 Times in 0 Posts
    ขอบคุณครับ...

  4. #3
    Senior Member
    สมัครเมื่อ
    Dec 2013
    โพสต์
    990
    Thanks
    952
    Thanked 0 Times in 0 Posts
    037 โหลดไม่ได้ครับ
    แก้ไขครั้งล่าสุดโดย sawara : 09-26-2023 เมื่อ 09:21 PM

  5. #4
    Senior Member
    สมัครเมื่อ
    Jul 2013
    โพสต์
    3,644
    Thanks
    0
    Thanked 0 Times in 0 Posts
    27/9/66 0.37 ยังโหลดไม่ได้ เช่นกันครับ

  6. #5
    Senior Member
    สมัครเมื่อ
    Dec 2013
    โพสต์
    990
    Thanks
    952
    Thanked 0 Times in 0 Posts
    037ยังโหลดไม่ได้เลยครับ รบกวนแก้ไขให้ทีครับ

+ ตอบกลับกระทู้

ข้อมูลกระทู้

Users Browsing this Thread

ในขณะนี้มี 1 ท่านดูกระทู้อยู่. (0 สมาชิกและ 1 ผู้เยี่ยมชม)

     

กฎการโพสต์ข้อความ

  • ท่าน ไม่สามารถ ตั้งกระทู้ใหม่ได้
  • ท่าน ไม่สามารถ ตอบกระทู้ได้
  • ท่าน ไม่สามารถ แนบไฟล์ได้
  • ท่าน ไม่สามารถ แก้ไขข้อความโพสต์ได้
  • BB code สถานะ เปิด
  • Smilies สถานะ เปิด
  • [IMG] สถานะ เปิด
  • HTML สถานะ ปิด