+ ตอบกลับกระทู้
สรุปผลการค้นหา 1 ถึง 4 จากทั้งหมด 4

Hybrid View

  1. #1
    Administrators รูปส่วนตัว Duckload.us
    สมัครเมื่อ
    Dec 2010
    โพสต์
    149,921
    Thanks
    7
    Thanked 156,889 Times in 68,557 Posts

    Exclamation [ฝรั่ง]-[HBO] THE HEAD (2020) Season 1 [เสียง:อังกฤษ AC-3 5.1 -ไทย AC-3 2.0][บรรยาย: ไทย HBO PGS-ไทย/อังกฤษ SRT]-WEB-DL.H.264.1080p. [From HD-TV]-[พากย์ไทย บรรยายไทย]




    ตัวเรื่องหลักเกิดขึ้นในช่วงเวลามืดมิด 179 วัน หรือ 6 เดือนที่ทวีปแอนตาร์กติกา (ขั้วโลกใต้) จะไม่มีแสงอาทิตย์ส่องลงมา ทีมนักวิทยาศาสตร์ที่มาผลัดเปลี่ยนที่ฐาน Polaris VI กลับต้องพบทีมงานผลัดก่อนตายสยองเกือบยกทีม และมีผู้สูญหายไปอีก 3 คน ซึ่งนี่เป็นจุดเริ่มต้นของการสืบสวนหาความจริงที่เกิ ดขึ้น ผ่านคำบอกเล่าของตัวละครผู้พบว่ารอดชีวิตในภายหลัง ร่วมกับการปะติดปะต่อหลักฐานที่หลงเหลืออยู่เข้าด้วย กัน ตัวเรื่องจึงเป็นการเล่าย้อนกลับแฟลชแบ็คสลับกับปัจจ ุบันไปมาจนจบเรื่อง


    Video
    ID : 1
    Format : AVC
    Format/Info : Advanced Video Codec
    Format profile : High@L4
    Format settings : CABAC / 4 Ref Frames
    Format settings, CABAC : Yes
    Format settings, Reference fra : 4 frames
    Codec ID : V_MPEG4/ISO/AVC
    Duration : 50 min 29 s
    Bit rate mode : Constant
    Bit rate : 4 635 kb/s
    Nominal bit rate : 10 000 kb/s
    Width : 1 920 pixels
    Height : 960 pixels
    Display aspect ratio : 2.000
    Frame rate mode : Constant
    Frame rate : 25.000 FPS
    Color space : YUV
    Chroma subsampling : 4:2:0
    Bit depth : 8 bits
    Scan type : Progressive
    Bits/(Pixel*Frame) : 0.101
    Stream size : 1.63 GiB (83%)
    Default : Yes
    Forced : No
    Color range : Limited
    Color primaries : BT.709
    Transfer characteristics : BT.709
    Matrix coefficients : BT.709

    Audio #1
    ID : 2
    Format : AC-3
    Format/Info : Audio Coding 3
    Commercial name : Dolby Digital
    Codec ID : A_AC3
    Duration : 50 min 29 s
    Bit rate mode : Constant
    Bit rate : 320 kb/s
    Channel(s) : 2 channels
    Channel layout : L R
    Sampling rate : 48.0 kHz
    Frame rate : 31.250 FPS (1536 SPF)
    Compression mode : Lossy
    Stream size : 116 MiB (6%)
    Title : [Thai-AC-3]
    Language : Thai
    Service kind : Complete Main
    Default : Yes
    Forced : No

    Audio #2
    ID : 3
    Format : E-AC-3
    Format/Info : Enhanced AC-3
    Commercial name : Dolby Digital Plus
    Codec ID : A_EAC3
    Duration : 50 min 29 s
    Bit rate mode : Constant
    Bit rate : 640 kb/s
    Channel(s) : 6 channels
    Channel layout : L R C LFE Ls Rs
    Sampling rate : 48.0 kHz
    Frame rate : 31.250 FPS (1536 SPF)
    Compression mode : Lossy
    Stream size : 231 MiB (11%)
    Title : [English-AC-3 5.1]
    Language : English
    Service kind : Complete Main
    Default : No
    Forced : No

    Text #1
    ID : 4
    Format : PGS
    Muxing mode : zlib
    Codec ID : S_HDMV/PGS
    Codec ID/Info : Picture based subtitle format used on BDs/HD-DVDs
    Duration : 48 min 43 s
    Bit rate : 36.8 kb/s
    Count of elements : 1132
    Stream size : 12.8 MiB (1%)
    Title : [Thai HBO PGS]
    Language : Thai
    Default : Yes
    Forced : No

    Text #2
    ID : 5
    Format : UTF-8
    Codec ID : S_TEXT/UTF8
    Codec ID/Info : UTF-8 Plain Text
    Duration : 48 min 43 s
    Bit rate : 87 b/s
    Count of elements : 566
    Stream size : 31.1 KiB (0%)
    Title : Thai SRT
    Language : Thai
    Default : No
    Forced : No

    Text #3
    ID : 6
    Format : UTF-8
    Codec ID : S_TEXT/UTF8
    Codec ID/Info : UTF-8 Plain Text
    Duration : 46 min 59 s
    Bit rate : 40 b/s
    Count of elements : 557
    Stream size : 13.8 KiB (0%)
    Title : English SRT
    Language : English
    Default : No
    Forced : No





    Download:filecondo
    The.Head.2020.S01E06.1080p.Modified_By_mxn.mkv
    http://www.filecondo.com/dl.php?f=za977e1QLtAF

    The.Head.2020.S01E05.1080p.Modified_By_mxn.mkv
    http://www.filecondo.com/dl.php?f=Ybf7051QLtzF

    The.Head.2020.S01E04.1080p.Modified_By_mxn.mkv
    http://www.filecondo.com/dl.php?f=a34b641QLtyH

    The.Head.2020.S01E03.1080p.Modified_By_mxn.mkv
    http://www.filecondo.com/dl.php?f=G788f51QLtxK

    The.Head.2020.S01E02.1080p.Modified_By_mxn.mkv
    http://www.filecondo.com/dl.php?f=oe64541QLtwO

    The.Head.2020.S01E01.1080p.Modified_By_mxn.mkv
    http://www.filecondo.com/dl.php?f=We86591QLtvO

    Download:037file
    The.Head.2020.Season 1.zip - 12.0 GB

  2. The Following 2 Users Say Thank You to Duckload.us For This Useful Post:

    sawara (09-28-2023), Wesker_TOT (09-28-2023)

  3. #2
    Senior Member
    สมัครเมื่อ
    Jul 2013
    โพสต์
    3,644
    Thanks
    0
    Thanked 0 Times in 0 Posts
    ขอบคุณครับ

  4. #3
    Senior Member
    สมัครเมื่อ
    Dec 2013
    โพสต์
    6,002
    Thanks
    7,984
    Thanked 0 Times in 0 Posts
    ขอบคุณครับ...

  5. #4
    Senior Member
    สมัครเมื่อ
    Dec 2013
    โพสต์
    990
    Thanks
    952
    Thanked 0 Times in 0 Posts
    ขอบคุณครับบ

+ ตอบกลับกระทู้

ข้อมูลกระทู้

Users Browsing this Thread

ในขณะนี้มี 1 ท่านดูกระทู้อยู่. (0 สมาชิกและ 1 ผู้เยี่ยมชม)

     

กฎการโพสต์ข้อความ

  • ท่าน ไม่สามารถ ตั้งกระทู้ใหม่ได้
  • ท่าน ไม่สามารถ ตอบกระทู้ได้
  • ท่าน ไม่สามารถ แนบไฟล์ได้
  • ท่าน ไม่สามารถ แก้ไขข้อความโพสต์ได้
  • BB code สถานะ เปิด
  • Smilies สถานะ เปิด
  • [IMG] สถานะ เปิด
  • HTML สถานะ ปิด