+ ตอบกลับกระทู้
สรุปผลการค้นหา 1 ถึง 3 จากทั้งหมด 3
  1. #1
    Administrators รูปส่วนตัว Duckload.us
    สมัครเมื่อ
    Dec 2010
    โพสต์
    149,725
    Thanks
    7
    Thanked 156,688 Times in 68,430 Posts

    Exclamation [จีน]-[Monomax] Princess at Large Season 3 (2020) พระชายาลอยนวล ปี 3-WEB-DL.H.264.1080p. [Master]-[พากย์ไทย/จีน บรรยายไทย]



    เรื่องย่อ พระชายาลอยนวล ปี 3 Princess at Large Season 3
    กลับมาสานต่อความสนุกกับซีรีส์จีน 'พระชายาลอยนวล ปี 3 Princess at Large 3' หลันรั่วซี (รับบทโดย ลู่อี๋เสวียน) ได้ช่วยเหลือน่าหลันไป่ชวน (รับบทโดย ลั่วจวิ้นฟาน) ออกจากแคว้นตงหลินเพราะเขาถูกใส่ความ และได้รู้ว่าตัวตนที่แท้จริงของเขาเป็นถึงองค์ชายรอง จากหนานเหยียนนามว่า เร่อปู้เฟิงซิ่น เพื่อให้รอดพ้นจากการถูกประหาร หลันรั่วซีต้องช่วยองค์ชายรองให้รอดจากการถูกพิษ และทำให้ เร่อปู้ฮาตี๋ (รับบทโดย เกาหยาง) รัชทายาทแห่งแคว้นหนานเหยียนไว้ใจเธอจงได้ ทางด้านหมิงอ๋อง ฉีหลิงเซียว (รับบทโดย เซิ่งอิงหาว) ก็ไม่ได้นิ่งนอนใจ ด้วยความคิดถึงและเป็นห่วงหลันรั่วซีเขาเลยตัดสินใจข อความช่วยเหลือจากหมอเทวดา กู้ซีเฟิง (รับบทโดย เกาหาน) โดยการปลอมตัวเป็นกู้ซีเฟิงและแอบไปที่แคว้นหนานเหยี ยน ในขณะที่อาการป่วยขององค์ชายรองเร่อปู้เฟิงซิ่นค่อยๆ ดีขึ้น รัชทายาทเร่อปู้ฮาตี๋จากที่ไม่ไว้ใจหลันรั่วซีในตอนแ รกก็เริ่มมีใจให้กับเธอมากขึ้น ศึกรักเริ่มดุเดือด แต่สงครามบ้านเมืองระหว่างตงหลินและหนานเหยียนก็ละเล ยไม่ได้! มาตามลุ้นและเอาใจช่วยพวกเขาได้ในบทสรุปของ 'พระชายาลอยนวล ปี 3 Princess at Large 3'

    Video
    ID : 1
    Format : AVC
    Format/Info : Advanced Video Codec
    Format profile : High@L4
    Format settings : CABAC / 4 Ref Frames
    Format settings, CABAC : Yes
    Format settings, Reference frames : 4 frames
    Codec ID : V_MPEG4/ISO/AVC
    Duration : 36 min 52 s
    Bit rate : 4 000 kb/s
    Width : 1 920 pixels
    Height : 1 080 pixels
    Display aspect ratio : 16:9
    Frame rate mode : Constant
    Frame rate : 25.000 FPS
    Color space : YUV
    Chroma subsampling : 4:2:0
    Bit depth : 8 bits
    Scan type : Progressive
    Bits/(Pixel*Frame) : 0.077
    Stream size : 1.06 GiB (94%)
    Writing library : x264 core 148
    Encoding settings : cabac=1 / ref=3 / deblock=1:0:0 / analyse=0x3:0x113 / me=hex / subme=7 / psy=1 / psy_rd=1.00:0.00 / mixed_ref=1 / me_range=16 / chroma_me=1 / trellis=1 / 8x8dct=1 / cqm=0 / deadzone=21,11 / fast_pskip=1 / chroma_qp_offset=-2 / threads=18 / lookahead_threads=3 / sliced_threads=0 / nr=0 / decimate=1 / interlaced=0 / bluray_compat=0 / constrained_intra=0 / bframes=3 / b_pyramid=2 / b_adapt=1 / b_bias=0 / direct=1 / weightb=1 / open_gop=0 / weightp=2 / keyint=240 / keyint_min=121 / scenecut=40 / intra_refresh=0 / rc_lookahead=40 / rc=abr / mbtree=1 / bitrate=4000 / ratetol=1.0 / qcomp=0.60 / qpmin=0 / qpmax=69 / qpstep=4 / ip_ratio=1.40 / aq=1:1.00
    Default : Yes
    Forced : No

    Audio #1
    ID : 2
    Format : AAC LC
    Format/Info : Advanced Audio Codec Low Complexity
    Codec ID : A_AAC-2
    Duration : 36 min 52 s
    Bit rate : 128 kb/s
    Channel(s) : 2 channels
    Channel layout : L R
    Sampling rate : 48.0 kHz
    Frame rate : 46.875 FPS (1024 SPF)
    Compression mode : Lossy
    Stream size : 33.8 MiB (3%)
    Title : Thai
    Language : Thai
    Default : Yes
    Forced : No

    Audio #2
    ID : 3
    Format : AAC LC
    Format/Info : Advanced Audio Codec Low Complexity
    Codec ID : A_AAC-2
    Duration : 36 min 52 s
    Bit rate : 128 kb/s
    Channel(s) : 2 channels
    Channel layout : L R
    Sampling rate : 48.0 kHz
    Frame rate : 46.875 FPS (1024 SPF)
    Compression mode : Lossy
    Stream size : 33.8 MiB (3%)
    Title : 中 文
    Language : Chinese
    Default : No
    Forced : No

    Text
    ID : 4
    Format : UTF-8
    Codec ID : S_TEXT/UTF8
    Codec ID/Info : UTF-8 Plain Text
    Duration : 33 min 34 s
    Bit rate : 135 b/s
    Frame rate : 0.216 FPS
    Count of elements : 435
    Stream size : 33.2 KiB (0%)
    Language : Thai
    Default : Yes
    Forced : No



    Princess at Large Season 3.zip - 17.3 GB



    พระชายาลอยนวล_ปี_3_Princess_at_Large_Season_3_-_EP15.mkv
    http://www.filecondo.com/dl.php?f=S274bf1QMe9m

    พระชายาลอยนวล_ปี_3_Princess_at_Large_Season_3_-_EP14.mkv
    http://www.filecondo.com/dl.php?f=1719061QMe8o

    พระชายาลอยนวล_ปี_3_Princess_at_Large_Season_3_-_EP13.mkv
    http://www.filecondo.com/dl.php?f=S1e0301QMe7r

    พระชายาลอยนวล_ปี_3_Princess_at_Large_Season_3_-_EP12.mkv
    http://www.filecondo.com/dl.php?f=z024351QMe6s

    พระชายาลอยนวล_ปี_3_Princess_at_Large_Season_3_-_EP11.mkv
    http://www.filecondo.com/dl.php?f=k9a9f31QMe5v

    พระชายาลอยนวล_ปี_3_Princess_at_Large_Season_3_-_EP10.mkv
    http://www.filecondo.com/dl.php?f=t348e51QMe4w

    พระชายาลอยนวล_ปี_3_Princess_at_Large_Season_3_-_EP09.mkv
    http://www.filecondo.com/dl.php?f=Jd87d01QMe3z

    พระชายาลอยนวล_ปี_3_Princess_at_Large_Season_3_-_EP08.mkv
    http://www.filecondo.com/dl.php?f=54813c1QMe2B

    พระชายาลอยนวล_ปี_3_Princess_at_Large_Season_3_-_EP07.mkv
    http://www.filecondo.com/dl.php?f=vb39781QMe1D

    พระชายาลอยนวล_ปี_3_Princess_at_Large_Season_3_-_EP06.mkv
    http://www.filecondo.com/dl.php?f=Jac7491QMe0F

    พระชายาลอยนวล_ปี_3_Princess_at_Large_Season_3_-_EP05.mkv
    http://www.filecondo.com/dl.php?f=N116531QMdZG

    พระชายาลอยนวล_ปี_3_Princess_at_Large_Season_3_-_EP04.mkv
    http://www.filecondo.com/dl.php?f=9562811QMdYJ

    พระชายาลอยนวล_ปี_3_Princess_at_Large_Season_3_-_EP03.mkv
    http://www.filecondo.com/dl.php?f=l41a5f1QMdXL

    พระชายาลอยนวล_ปี_3_Princess_at_Large_Season_3_-_EP02.mkv
    http://www.filecondo.com/dl.php?f=m599721QMdWN

    พระชายาลอยนวล_ปี_3_Princess_at_Large_Season_3_-_EP01.mkv
    http://www.filecondo.com/dl.php?f=7880dc1QMdVO

  2. #2
    Junior Member
    สมัครเมื่อ
    Sep 2023
    โพสต์
    24
    Thanks
    0
    Thanked 0 Times in 0 Posts
    Ep 03 04 05 15 โหลดไม่ได้ครับ
    แก้ไขครั้งล่าสุดโดย mekakhom : 11-24-2023 เมื่อ 10:31 AM

  3. #3
    Junior Member
    สมัครเมื่อ
    Aug 2015
    โพสต์
    22
    Thanks
    0
    Thanked 0 Times in 0 Posts
    รบกวนด้วยครับ รอตอนที่ยังโหลดไม่ได้ครับ .... รู้สึกจะมีทุก season เลยครับ ที่มีปัญหา ขอบคุณครับ....

+ ตอบกลับกระทู้

ข้อมูลกระทู้

Users Browsing this Thread

ในขณะนี้มี 1 ท่านดูกระทู้อยู่. (0 สมาชิกและ 1 ผู้เยี่ยมชม)

     

กฎการโพสต์ข้อความ

  • ท่าน ไม่สามารถ ตั้งกระทู้ใหม่ได้
  • ท่าน ไม่สามารถ ตอบกระทู้ได้
  • ท่าน ไม่สามารถ แนบไฟล์ได้
  • ท่าน ไม่สามารถ แก้ไขข้อความโพสต์ได้
  • BB code สถานะ เปิด
  • Smilies สถานะ เปิด
  • [IMG] สถานะ เปิด
  • HTML สถานะ ปิด