+ ตอบกลับกระทู้
สรุปผลการค้นหา 1 ถึง 2 จากทั้งหมด 2
  1. #1
    Administrators รูปส่วนตัว Duckload.us
    สมัครเมื่อ
    Dec 2010
    โพสต์
    150,776
    Thanks
    7
    Thanked 158,041 Times in 69,006 Posts

    Unhappy [ญี่ปุ่น]-Strike Witches สงครามเวหา กกน.ลอยฟ้า รวม 11 ภาค [BD 1920x1080 x265 HEVC FLAC]



    Quote:
    ในปี 1939 มีการอารวาทของ เนลรอยย์ ไม่มีใครรู้ว่ามาจากไหนและเพื่อจุดประสงค์ใด แต่มันทำให้ผู้คนล้่มตายและบ้านเมืองพังทลายไปเป็นอั นมาก จึงได้มีการจัดตั้งอาวุธต่อต้านเนลรอยย์ที่มีชื่อเรี ยกว่า “สไตรค์ ยูนิต” โดยใช้พลังของเวทย์มนต์ต่อสู้กับเหล่าเนลรอยย์ ในการใช้อาวุธนี้ จึงหาเด็กสาวทั่วโลกมาเพื่อใช้อาวุธนี้ และได้มีการจัดตั้ง กองกำลังบินรบร่วม 501 สไตรค์ วิทซ์ ขึ้นมา

    ในโลกของสไตรค์ วิทซ์ จะแบ่งวิทซ์ออกเป็นหลายกลุ่มกระจายไปทั่วโลก ภาคอนิเมะโฟกัสที่กลุ่ม 501 เป็นหลัก มีภาคแยกแบบ Brave Witch ที่เพิ่มตัวละครหน่วยอื่น ภาคที่เหลือจะเป็นการ์ตูนแก๊กแนวเฮฮา และ Luminous Witches จะมาแนวไอดอล


    รวม 11 ภาค มีดังนี้ wrote:

    ภาคหลัก
    Strike Witches OVA [DVD 480p ซับอังกฤษ]
    Strike Witches [BD 1080p x264 FLAC พากย์ไทย/ซับไทย]
    Strike Witches II [BD 1080p HEVC FLAC พากย์ไทย/ซับไทย]
    Strike Witches The Movie [BD 1080p HEVC OPUS พากย์ญี่ปุ่น/อังกฤษ ซับไทย]
    Strike Witches Operation Victory Arrow [HD 720p ซับไทยแบบฝัง]
    Strike Witches Road to Berlin [BD 1080p x264 ซับไทย]

    ภาคแยก
    Strike Witches 501st Joint Fighter Wing Take Off! [BD 1080p HEVC OPUS พากย์ญี่ปุ่น/อังกฤษ ซับไทย]
    Strike Witches 501st Joint Fighter Wing Take Off! The Movie [BD 1080p HEVC OPUS พากย์ญี่ปุ่น/อังกฤษ ซับไทย]
    World Witches Take Off! [BD 1080p HEVC FLAC ซับไทย]
    Brave Witches [BD 1080p HEVC FLAC ซับไทย]
    Luminous Witches [BD 1080p HEVC FLAC ซับไทย]


    Quote:
    Modified by Meguno


    รายละเอียดไฟล์
    Quote:
    General
    Format : Matroska
    Format version : Version 4
    File size : 919 MiB
    Duration : 24 min 26 s
    Overall bit rate mode : Variable
    Overall bit rate : 5 254 kb/s
    Frame rate : 23.976 FPS
    Movie name : anime
    Encoded date : 2017-05-02 12:03:06 UTC
    Writing application : mkvmerge v8.3.0 ('Over the Horizon') 64bit
    Writing library : libebml v1.3.1 + libmatroska v1.4.2
    Attachments : HelveticaNeueLTStd-Bd.otf / HelveticaNeueLTStd-BdIt.otf / Kan2EngGSZS3.ttf / KozGoPro-Heavy.otf / KozGoPro-Medium.otf / KozMinPro-Bold.otf / KozMinPro-Medium.otf / KozMinPro-Regular.otf / PT_Sans_Bold.ttf

    Video
    ID : 1
    Format : HEVC
    Format/Info : High Efficiency Video Coding
    Format profile : Main [email protected]@High
    Codec ID : V_MPEGH/ISO/HEVC
    Duration : 24 min 26 s
    Bit rate : 4 195 kb/s
    Width : 1 920 pixels
    Height : 1 080 pixels
    Display aspect ratio : 16:9
    Frame rate mode : Constant
    Frame rate : 23.976 (24000/1001) FPS
    Color space : YUV
    Chroma subsampling : 4:2:0
    Bit depth : 10 bits
    Bits/(Pixel*Frame) : 0.084
    Stream size : 734 MiB (80%)
    Writing library : x265 2.1+25-0e9e52640546:[Windows][GCC 6.2.0][64 bit] 10bit
    Encoding settings : wpp / ctu=32 / min-cu-size=16 / max-tu-size=32 / tu-intra-depth=1 / tu-inter-depth=1 / me=0 / subme=0 / merange=57 / no-rect / no-amp / max-merge=2 / temporal-mvp / early-skip / rskip / rdpenalty=0 / no-tskip / no-tskip-fast / strong-intra-smoothing / no-lossless / no-cu-lossless / no-constrained-intra / fast-intra / open-gop / no-temporal-layers / interlace=0 / keyint=250 / min-keyint=23 / scenecut=0 / rc-lookahead=5 / lookahead-slices=6 / bframes=3 / bframe-bias=0 / b-adapt=0 / ref=1 / limit-refs=0 / no-limit-modes / no-weightp / no-weightb / aq-mode=1 / qg-size=32 / aq-strength=0.00 / cbqpoffs=0 / crqpoffs=0 / rd=2 / psy-rd=2.00 / rdoq-level=0 / psy-rdoq=0.00 / log2-max-poc-lsb=8 / limit-tu=0 / no-rd-refine / no-signh-i-d-e / deblock=0:0 / no-sao / no-sao-non-deblock / b-pyramid / cutree / no-intra-refresh / rc=crf / crf=15.0 / qcomp=0.60 / qpmin=0 / qpmax=69 / qpstep=4 / vbv-maxrate=160000 / vbv-bufsize=160000 / crf-max=0.0 / ipratio=1.40 / pbratio=1.30
    Default : Yes
    Forced : No

    Audio #1
    ID : 2
    Format : AC-3
    Format/Info : Audio Coding 3
    Commercial name : Dolby Digital
    Codec ID : A_AC3
    Duration : 24 min 26 s
    Bit rate mode : Constant
    Bit rate : 192 kb/s
    Channel(s) : 2 channels
    Channel layout : L R
    Sampling rate : 48.0 kHz
    Frame rate : 31.250 FPS (1536 SPF)
    Compression mode : Lossy
    Stream size : 33.6 MiB (4%)
    Language : Thai
    Service kind : Complete Main
    Default : Yes
    Forced : No

    Audio #2
    ID : 3
    Format : FLAC
    Format/Info : Free Lossless Audio Codec
    Codec ID : A_FLAC
    Duration : 24 min 26 s
    Bit rate mode : Variable
    Bit rate : 752 kb/s
    Channel(s) : 2 channels
    Channel layout : L R
    Sampling rate : 48.0 kHz
    Frame rate : 10.417 FPS (4608 SPF)
    Bit depth : 16 bits
    Compression mode : Lossless
    Stream size : 132 MiB (14%)
    Language : Japanese
    Default : No
    Forced : No
    MD5 of the unencoded conten : 9EC50589FEE2AF3C726921BB54227B13

    Text
    ID : 4
    Format : ASS
    Codec ID : S_TEXT/ASS
    Codec ID/Info : Advanced Sub Station Alpha
    Duration : 24 min 24 s
    Bit rate : 164 b/s
    Frame rate : 0.265 FPS
    Count of elements : 388
    Compression mode : Lossless
    Stream size : 29.5 KiB (0%)
    Language : English
    Default : No
    Forced : No






    Strike Witches Series.zip - 74.9 GB

  2. #2
    Junior Member รูปส่วนตัว wert040
    สมัครเมื่อ
    Feb 2024
    โพสต์
    1
    Thanks
    0
    Thanked 0 Times in 0 Posts
    โหลดไม่ได้ครับ

+ ตอบกลับกระทู้

ข้อมูลกระทู้

Users Browsing this Thread

ในขณะนี้มี 1 ท่านดูกระทู้อยู่. (0 สมาชิกและ 1 ผู้เยี่ยมชม)

     

กฎการโพสต์ข้อความ

  • ท่าน ไม่สามารถ ตั้งกระทู้ใหม่ได้
  • ท่าน ไม่สามารถ ตอบกระทู้ได้
  • ท่าน ไม่สามารถ แนบไฟล์ได้
  • ท่าน ไม่สามารถ แก้ไขข้อความโพสต์ได้
  • BB code สถานะ เปิด
  • Smilies สถานะ เปิด
  • [IMG] สถานะ เปิด
  • HTML สถานะ ปิด