+ ตอบกลับกระทู้
สรุปผลการค้นหา 1 ถึง 8 จากทั้งหมด 8
  1. #1
    Administrators รูปส่วนตัว Duckload.us
    สมัครเมื่อ
    Dec 2010
    โพสต์
    149,921
    Thanks
    7
    Thanked 156,883 Times in 68,554 Posts

    Lightbulb [ฝรั่ง]-Loki S02E01-06 [1080p WEB-DL]-[เสียง: ไทย DD+ 5.1 + อังกฤษ DD+ Atmos 5.1]-[Sub: ไทย + อังกฤษ SRT]-WEB-DL.H.264.1080p. [Master]-[พากย์ไทย บรรยายไทย]



    -เรื่องย่อ-
    S02E01: โลกิหลงทางวนเวียนอยู่ในห้วงกาลเวลา ระหว่างอดีต ปัจจุบันและอนาคต โดยที่ไม่รู้ว่าจะหาทางออกอย่างไร


    Video
    ID : 1
    Format : AVC
    Format/Info : Advanced Video Codec
    Format profile : High@L4
    Format settings : CABAC / 4 Ref Frames
    Format settings, CABAC : Yes
    Format settings, Reference fra : 4 frames
    Codec ID : V_MPEG4/ISO/AVC
    Duration : 45 min 15 s
    Bit rate mode : Variable
    Bit rate : 6 281 kb/s
    Maximum bit rate : 12.7 Mb/s
    Width : 1 920 pixels
    Height : 1 080 pixels
    Display aspect ratio : 16:9
    Frame rate mode : Constant
    Frame rate : 24.000 FPS
    Color space : YUV
    Chroma subsampling : 4:2:0
    Bit depth : 8 bits
    Scan type : Progressive
    Bits/(Pixel*Frame) : 0.126
    Stream size : 1.99 GiB (87%)
    Language : English
    Default : Yes
    Forced : Yes
    Color range : Limited
    Color primaries : BT.709
    Transfer characteristics : BT.709
    Matrix coefficients : BT.709

    Audio #1
    ID : 2
    Format : E-AC-3 JOC
    Format/Info : Enhanced AC-3 with Joint Object Coding
    Commercial name : Dolby Digital Plus with Dolby Atmos
    Codec ID : A_EAC3
    Duration : 45 min 15 s
    Bit rate mode : Constant
    Bit rate : 768 kb/s
    Channel(s) : 6 channels
    Channel layout : L R C LFE Ls Rs
    Sampling rate : 48.0 kHz
    Frame rate : 31.250 FPS (1536 SPF)
    Compression mode : Lossy
    Stream size : 249 MiB (11%)
    Title : English (DD+ Atmos 5.1 - Disney+)
    Language : English
    Service kind : Complete Main
    Default : No
    Forced : No
    Complexity index : 16
    Number of dynamic objects : 15
    Bed channel count : 1 channel
    Bed channel configuration : LFE

    Audio #2
    ID : 3
    Format : E-AC-3
    Format/Info : Enhanced AC-3
    Commercial name : Dolby Digital Plus
    Codec ID : A_EAC3
    Duration : 45 min 15 s
    Bit rate mode : Constant
    Bit rate : 192 kb/s
    Channel(s) : 6 channels
    Channel layout : L R C LFE Ls Rs
    Sampling rate : 48.0 kHz
    Frame rate : 31.250 FPS (1536 SPF)
    Bit depth : 32 bits
    Compression mode : Lossy
    Delay relative to video : 8 ms
    Stream size : 62.2 MiB (3%)
    Title : Thai (DD+ 5.1 - Hotstar)
    Language : Thai
    Service kind : Complete Main
    Default : Yes
    Forced : No

    Text #1
    ID : 4
    Format : UTF-8
    Codec ID : S_TEXT/UTF8
    Codec ID/Info : UTF-8 Plain Text
    Duration : 42 min 39 s
    Bit rate : 68 b/s
    Frame rate : 0.245 FPS
    Count of elements : 627
    Stream size : 21.3 KiB (0%)
    Title : English (SRT - Hotstar)
    Language : English
    Default : No
    Forced : No

    Text #2
    ID : 5
    Format : UTF-8
    Codec ID : S_TEXT/UTF8
    Codec ID/Info : UTF-8 Plain Text
    Duration : 45 min 7 s
    Bit rate : 118 b/s
    Frame rate : 0.216 FPS
    Count of elements : 585
    Stream size : 39.0 KiB (0%)
    Title : Thai (SRT - Hotstar)
    Language : Thai
    Default : Yes
    Forced : No

    Menu
    00:00:04.000 : en:Recap
    00:01:44.667 : en:Scene 1
    00:09:32.667 : en:Scene 2
    00:16:20.667 : en:Scene 3
    00:23:24.667 : en:Scene 4
    00:31:59.542 : en:Scene 5
    00:39:04.917 : en:Credits
    00:41:25.625 : en:Post-Credits Scene





    Download:filecondo

    Loki.S02E06.Glorious.Purpose.1080p.DPHS.WEB-DL.DDP.5.1.Atmos.HDR.HEVC.mkv
    http://www.filecondo.com/dl.php?f=t5a37e1R1r7C

    Loki.S02E06.Glorious.Purpose.1080p.DSNP.WEB-DL.DDP5.1.Atmos.H.264.mkv
    http://www.filecondo.com/dl.php?f=H9d44f1R1r6H

    Loki.S02E05.Science.Fiction.1080p.DSNP.WEB-DL.DDP5.1.Atmos.H.264.mkv
    http://www.filecondo.com/dl.php?f=Xca9a61QYRCh

    Loki.S02E05.Science.-.Fiction.1080p.HS.WEB-DL.DDP5.1.Atmos.H.264-MESSI.mkv
    http://www.filecondo.com/dl.php?f=P18a721QYRBl

    Loki.S02E04.Heart.of.the.TVA.1080p.HS.WEB-DL.DDP5.1.Atmos.H.264-MESSI.mkv
    http://www.filecondo.com/dl.php?f=Gab3511QWIoC

    Loki.S02E04.Heart.of.the.TVA.1080p.DSNP.WEB-DL.DDP5.1.Atmos.H.264.mkv
    http://www.filecondo.com/dl.php?f=Ib02231QWInE

    Loki.S02E04.Heart.of.the.TVA.1080p.DPHS.WEB-DL.DDP.5.1.TH.Atmos.mkv
    http://www.filecondo.com/dl.php?f=P39c0b1QWImF

    Loki.S02E04.Heart.of.the.TVA.1080p.DPHS.WEB-DL.DDP.5.1.Atmos.mkv
    http://www.filecondo.com/dl.php?f=i5b8f81QWIlG

    Loki.S02E03.1893.1080p.DSNP.WEB-DL.DDP5.1.Atmos.H.264.mkv
    http://www.filecondo.com/dl.php?f=2410971QTLSN
    Loki.S02E02.Breaking.Brad.1080p.HS.WEB-DL.DDP5.1.Atmos.H.264-MESSI.mkv
    http://www.filecondo.com/dl.php?f=N6d0321QRBhV
    Loki.S02E02.Breaking.Brad.1080p.DSNP.WEB-DL.DDP5.1.Atmos.H.264.mkv
    http://www.filecondo.com/dl.php?f=re277e1QRBgY

    1 http://www.filecondo.com/dl.php?f=n7175e1QOItx

  2. The Following 6 Users Say Thank You to Duckload.us For This Useful Post:

    jangska (11-10-2023), petpina2010 (10-12-2023), rakterkonne (10-07-2023), Wesker_TOT (10-07-2023), whiteherbie (12-05-2023), zhad01 (10-07-2023)

  3. #2
    Senior Member
    สมัครเมื่อ
    Dec 2013
    โพสต์
    6,002
    Thanks
    7,984
    Thanked 0 Times in 0 Posts
    ขอบคุณครับ...

  4. #3
    Senior Member
    สมัครเมื่อ
    Jul 2013
    โพสต์
    3,644
    Thanks
    0
    Thanked 0 Times in 0 Posts
    ขอบคุณครับ

  5. #4
    Senior Member รูปส่วนตัว petpina2010
    สมัครเมื่อ
    Jun 2020
    โพสต์
    235
    Thanks
    239
    Thanked 0 Times in 0 Posts
    ขอบคุณครับ

  6. #5
    Administrators รูปส่วนตัว Duckload.us
    สมัครเมื่อ
    Dec 2010
    โพสต์
    149,921
    Thanks
    7
    Thanked 156,883 Times in 68,554 Posts
    Loki S02E01-03

  7. #6
    Junior Member
    สมัครเมื่อ
    Jun 2011
    โพสต์
    2
    Thanks
    0
    Thanked 0 Times in 0 Posts
    ขอบคุณครับ

  8. #7
    Junior Member
    สมัครเมื่อ
    May 2020
    โพสต์
    19
    Thanks
    0
    Thanked 0 Times in 0 Posts
    ขอบคุณครับ

  9. #8
    Senior Member
    สมัครเมื่อ
    Dec 2011
    โพสต์
    3,038
    Thanks
    610
    Thanked 0 Times in 0 Posts
    ขอบคุณค่ะ

+ ตอบกลับกระทู้

ข้อมูลกระทู้

Users Browsing this Thread

ในขณะนี้มี 1 ท่านดูกระทู้อยู่. (0 สมาชิกและ 1 ผู้เยี่ยมชม)

     

กฎการโพสต์ข้อความ

  • ท่าน ไม่สามารถ ตั้งกระทู้ใหม่ได้
  • ท่าน ไม่สามารถ ตอบกระทู้ได้
  • ท่าน ไม่สามารถ แนบไฟล์ได้
  • ท่าน ไม่สามารถ แก้ไขข้อความโพสต์ได้
  • BB code สถานะ เปิด
  • Smilies สถานะ เปิด
  • [IMG] สถานะ เปิด
  • HTML สถานะ ปิด