+ ตอบกลับกระทู้
สรุปผลการค้นหา 1 ถึง 2 จากทั้งหมด 2
  1. #1
    Administrators รูปส่วนตัว Duckload.us
    สมัครเมื่อ
    Dec 2010
    โพสต์
    149,921
    Thanks
    7
    Thanked 156,890 Times in 68,557 Posts

    Exclamation [ฝรั่ง]-เสียงแห่งเสรีภาพ : Sound.of.Freedom.2023.1080p.WEB.h264.EN.SUB-TH [เสียง:อังกฤษ][บรรยาย:อังกฤษ-ไทยแปล:อนันต์ โพธิสูง]-Blu-ray.AC-3.1080p. [Modified]-[Soundtrack บรรยายไทย (แปล)]




    เรื่องจริงอันน่าเหลือเชื่อของอดีตเจ้าหน้าที่รัฐบาล ที่ผันตัวมาเป็นศาลเตี้ยและทำภารกิจอันตรายเพื่อช่วย เหลือเด็กหลายร้อยคนจากผู้ค้ามนุษย์


    General
    Unique ID : 279733808702357836948942323620201808448 (0xD272C598DC9FD1B86712399B9B66C240)
    Complete name : F:Sound.of.Freedom.2023.1080p.WEB.h264.EN.SUB-THSound.of.Freedom.2023.1080p.WEB.h264.EN.SUB-TH.kiatplk.mkv
    Format : Matroska
    Format version : Version 4
    File size : 6.44 GiB
    Duration : 2 h 10 min
    Overall bit rate : 7 037 kb/s
    Movie name : Sound.of.Freedom.2023.1080p.WEB.h264.EN.SUB-TH.kiatplk
    Encoded date : UTC 2023-10-09 12:31:04
    Writing application : mkvmerge v79.0 ('Funeral Pyres') 64-bit
    Writing library : libebml v1.4.4 + libmatroska v1.7.1

    Video
    ID : 1
    Format : AVC
    Format/Info : Advanced Video Codec
    Format profile : High@L4
    Format settings : CABAC / 5 Ref Frames
    Format settings, CABAC : Yes
    Format settings, Reference fra : 5 frames
    Codec ID : V_MPEG4/ISO/AVC
    Duration : 2 h 10 min
    Bit rate : 6 635 kb/s
    Width : 1 920 pixels
    Height : 804 pixels
    Display aspect ratio : 2.40:1
    Frame rate mode : Constant
    Frame rate : 24.000 FPS
    Color space : YUV
    Chroma subsampling : 4:2:0
    Bit depth : 8 bits
    Scan type : Progressive
    Bits/(Pixel*Frame) : 0.179
    Stream size : 6.07 GiB (94%)
    Default : Yes
    Forced : No
    Color range : Limited
    Color primaries : BT.709
    Transfer characteristics : BT.709
    Matrix coefficients : BT.709

    Audio
    ID : 2
    Format : AC-3
    Format/Info : Audio Coding 3
    Commercial name : Dolby Digital
    Codec ID : A_AC3
    Duration : 2 h 10 min
    Bit rate mode : Constant
    Bit rate : 384 kb/s
    Channel(s) : 6 channels
    Channel layout : L R C LFE Ls Rs
    Sampling rate : 48.0 kHz
    Frame rate : 31.250 FPS (1536 SPF)
    Compression mode : Lossy
    Stream size : 360 MiB (5%)
    Language : English
    Service kind : Complete Main
    Default : Yes
    Forced : No

    Text #1
    ID : 3
    Format : UTF-8
    Codec ID : S_TEXT/UTF8
    Codec ID/Info : UTF-8 Plain Text
    Duration : 1 h 53 min
    Bit rate : 6 b/s
    Frame rate : 0.041 FPS
    Count of elements : 279
    Stream size : 5.45 KiB (0%)
    Title : English (US) (forced)
    Language : English
    Default : Yes
    Forced : Yes

    Text #2
    ID : 4
    Format : UTF-8
    Codec ID : S_TEXT/UTF8
    Codec ID/Info : UTF-8 Plain Text
    Duration : 2 h 0 min
    Bit rate : 61 b/s
    Frame rate : 0.130 FPS
    Count of elements : 937
    Stream size : 54.3 KiB (0%)
    Language : Thai
    Default : Yes
    Forced : No

    Text #3
    ID : 5
    Format : PGS
    Muxing mode : zlib
    Codec ID : S_HDMV/PGS
    Codec ID/Info : Picture based subtitle format used on BDs/HD-DVDs
    Duration : 2 h 0 min
    Bit rate : 18.3 kb/s
    Frame rate : 0.260 FPS
    Count of elements : 1874
    Stream size : 15.7 MiB (0%)
    Title : Thai1080p.Angsana
    Language : Thai
    Default : Yes
    Forced : No

    Text #4
    ID : 6
    Format : PGS
    Muxing mode : zlib
    Codec ID : S_HDMV/PGS
    Codec ID/Info : Picture based subtitle format used on BDs/HD-DVDs
    Duration : 2 h 0 min
    Bit rate : 18.3 kb/s
    Frame rate : 0.260 FPS
    Count of elements : 1874
    Stream size : 15.7 MiB (0%)
    Title : Thai1080p.Angsana [ yellow ]
    Language : Thai
    Default : Yes
    Forced : No



    บรรยาย:ไทย.อนันต์ โพธิสูง

    https://037file.com/s2yjyci5f3oj
    http://www.filecondo.com/dl.php?f=P804511QQaW1

  2. The Following 2 Users Say Thank You to Duckload.us For This Useful Post:

    lonin (10-14-2023), noi54 (10-11-2023)

  3. #2
    Senior Member
    สมัครเมื่อ
    Feb 2017
    โพสต์
    154
    Thanks
    0
    Thanked 0 Times in 0 Posts
    ขอบคุณมากๆครับ
    อยากดูมากเรื่องนี้ครับ
    เห็นเขาบอกว่าที่อเมริกา ทำรายได้ดีมาก

+ ตอบกลับกระทู้

ข้อมูลกระทู้

Users Browsing this Thread

ในขณะนี้มี 1 ท่านดูกระทู้อยู่. (0 สมาชิกและ 1 ผู้เยี่ยมชม)

     

กฎการโพสต์ข้อความ

  • ท่าน ไม่สามารถ ตั้งกระทู้ใหม่ได้
  • ท่าน ไม่สามารถ ตอบกระทู้ได้
  • ท่าน ไม่สามารถ แนบไฟล์ได้
  • ท่าน ไม่สามารถ แก้ไขข้อความโพสต์ได้
  • BB code สถานะ เปิด
  • Smilies สถานะ เปิด
  • [IMG] สถานะ เปิด
  • HTML สถานะ ปิด