+ ตอบกลับกระทู้
สรุปผลการค้นหา 1 ถึง 2 จากทั้งหมด 2
  1. #1
    Administrators รูปส่วนตัว Duckload.us
    สมัครเมื่อ
    Dec 2010
    โพสต์
    149,921
    Thanks
    7
    Thanked 156,886 Times in 68,557 Posts

    Exclamation [ฝรั่ง]-Organ.Trail.2023.1080p.WEB.h264.EN.SUB-TH-Blu-ray.AC-3.1080p. [Modified]-[Soundtrack บรรยายไทย (Master)]



    Organ Trail (2023) : เรื่องราวตั้งอยู่ในรัฐมอนทาน่าในปี 1870 และติดตามหญิงสาวผู้บุกเบิกชื่อ Abigail (Zoé De Grand Maison) หลังจากถูกกลุ่มโจรโจมตีเกวียนของครอบครัวเธอ เรื่องราวเกี่ยวข้องกับความพยายามของเธอที่จะกู้คืนผ ู้รอดชีวิตจากเหตุการณ์อีกคนหนึ่งในครอบครัวของเธอ ซึ่งก็คือม้าของพวกเขา ระหว่างทาง เธอยังคงเผชิญหน้ากับผู้โจมตี พบกับพันธมิตร และพยายามเอาตัวรอดในฤดูหนาวอันโหดร้าย[/B]

    General
    Unique ID : 72810166619211992432162846367820802057 (0x36C6BA5F2D27C8B4E47244FBF2ABE809)
    Complete name : F:Organ.Trail.2023.1080p.WEB.h264.EN.SUB-THOrgan.Trail.2023.1080p.WEB.h264.EN.SUB-TH.kiatplk.mkv
    Format : Matroska
    Format version : Version 4
    File size : 7.67 GiB
    Duration : 1 h 52 min
    Overall bit rate : 9 795 kb/s
    Movie name : Organ.Trail.2023.1080p.WEB.h264.EN.SUB-TH.kiatplk
    Encoded date : UTC 2023-10-11 01:14:56
    Writing application : mkvmerge v79.0 ('Funeral Pyres') 64-bit
    Writing library : libebml v1.4.4 + libmatroska v1.7.1

    Video
    ID : 1
    Format : AVC
    Format/Info : Advanced Video Codec
    Format profile : High@L4
    Format settings : CABAC / 4 Ref Frames
    Format settings, CABAC : Yes
    Format settings, Reference fra : 4 frames
    Codec ID : V_MPEG4/ISO/AVC
    Duration : 1 h 52 min
    Bit rate mode : Constant
    Bit rate : 9 134 kb/s
    Nominal bit rate : 10 000 kb/s
    Width : 1 920 pixels
    Height : 1 040 pixels
    Display aspect ratio : 1.85:1
    Frame rate mode : Constant
    Frame rate : 24.000 FPS
    Color space : YUV
    Chroma subsampling : 4:2:0
    Bit depth : 8 bits
    Scan type : Progressive
    Bits/(Pixel*Frame) : 0.191
    Stream size : 7.15 GiB (93%)
    Default : Yes
    Forced : No
    Color range : Limited
    Color primaries : BT.709
    Transfer characteristics : BT.709
    Matrix coefficients : BT.709

    Audio
    ID : 2
    Format : E-AC-3
    Format/Info : Enhanced AC-3
    Commercial name : Dolby Digital Plus
    Codec ID : A_EAC3
    Duration : 1 h 52 min
    Bit rate mode : Constant
    Bit rate : 640 kb/s
    Channel(s) : 6 channels
    Channel layout : L R C LFE Ls Rs
    Sampling rate : 48.0 kHz
    Frame rate : 31.250 FPS (1536 SPF)
    Compression mode : Lossy
    Stream size : 513 MiB (7%)
    Language : English
    Service kind : Complete Main
    Default : Yes
    Forced : No

    Text #1
    ID : 3
    Format : UTF-8
    Codec ID : S_TEXT/UTF8
    Codec ID/Info : UTF-8 Plain Text
    Duration : 1 h 46 min
    Bit rate : 39 b/s
    Frame rate : 0.185 FPS
    Count of elements : 1186
    Stream size : 30.8 KiB (0%)
    Title : English (SDH)
    Language : English
    Default : No
    Forced : No

    Text #2
    ID : 4
    Format : UTF-8
    Codec ID : S_TEXT/UTF8
    Codec ID/Info : UTF-8 Plain Text
    Duration : 1 h 51 min
    Bit rate : 70 b/s
    Frame rate : 0.134 FPS
    Count of elements : 895
    Stream size : 57.8 KiB (0%)
    Language : Thai
    Default : Yes
    Forced : No

    Text #3
    ID : 5
    Format : PGS
    Muxing mode : zlib
    Codec ID : S_HDMV/PGS
    Codec ID/Info : Picture based subtitle format used on BDs/HD-DVDs
    Duration : 1 h 51 min
    Bit rate : 20.8 kb/s
    Frame rate : 0.267 FPS
    Count of elements : 1790
    Stream size : 16.6 MiB (0%)
    Title : Thai1080p.Angsana
    Language : Thai
    Default : Yes
    Forced : No

    Text #4
    ID : 6
    Format : PGS
    Muxing mode : zlib
    Codec ID : S_HDMV/PGS
    Codec ID/Info : Picture based subtitle format used on BDs/HD-DVDs
    Duration : 1 h 51 min
    Bit rate : 20.8 kb/s
    Frame rate : 0.267 FPS
    Count of elements : 1790
    Stream size : 16.6 MiB (0%)
    Title : Thai1080p.Angsana [ yellow ]
    Language : Thai
    Default : Yes
    Forced : No



    https://037file.com/y6yv0l1934fd
    http://www.filecondo.com/dl.php?f=i57c5f1QQyFM

  2. The Following 2 Users Say Thank You to Duckload.us For This Useful Post:

    noi54 (10-18-2023), numhouse (10-26-2023)

  3. #2
    Senior Member
    สมัครเมื่อ
    Jul 2013
    โพสต์
    3,644
    Thanks
    0
    Thanked 0 Times in 0 Posts
    ขอบคุณครับ

+ ตอบกลับกระทู้

ข้อมูลกระทู้

Users Browsing this Thread

ในขณะนี้มี 1 ท่านดูกระทู้อยู่. (0 สมาชิกและ 1 ผู้เยี่ยมชม)

     

กฎการโพสต์ข้อความ

  • ท่าน ไม่สามารถ ตั้งกระทู้ใหม่ได้
  • ท่าน ไม่สามารถ ตอบกระทู้ได้
  • ท่าน ไม่สามารถ แนบไฟล์ได้
  • ท่าน ไม่สามารถ แก้ไขข้อความโพสต์ได้
  • BB code สถานะ เปิด
  • Smilies สถานะ เปิด
  • [IMG] สถานะ เปิด
  • HTML สถานะ ปิด