+ ตอบกลับกระทู้
สรุปผลการค้นหา 1 ถึง 2 จากทั้งหมด 2
  1. #1
    Administrators รูปส่วนตัว Duckload.us
    สมัครเมื่อ
    Dec 2010
    โพสต์
    152,106
    Thanks
    7
    Thanked 159,085 Times in 69,585 Posts

    Lightbulb [ฝรั่ง]-Five Nights at Freddy's (2023) | 5 คืนสยองที่ร้านเฟรดดี้ 2160p UHD HDR10 Web-DL Dolby Digital+ [Soundtrack - บรรยายไทยโดย อนันต์ โพธิสูง]-4K Blu-ray.H.265.2160p. [Master]-[Soundtrack บรรยายไทย (แปล)]



    พนักงานรักษาความปลอดภัยเจ้าปัญหาเริ่มทำงานที่ร้านพ ิซซ่าเฟรดดี้ ฟาซแบร์ และในคืนแรกของการทำงาน เขาก็รู้ว่างานกะกลางคืนที่ร้านเฟรดดี้ไม่ได้ง่ายอย่ างที่คิด ก่อนที่อีกไม่นานเขาจะได้รู้ว่าอะไรจะเกิดขึ้นในที่ร ้านเฟรดดี้กันแน่

    Five Nights At Freddy's 5 คืนสยองที่ร้านเฟรดดี้ หนังสยองขวัญสร้างจากเกมชื่อเดียวกัน บอกเล่าเรื่องราวของ ไมค์ ชมิดต์ (จอช ฮัทเชอร์สัน) เจ้าหน้าที่รักษาความปลอดภัยที่เริ่มงานกะกลางคืนคืน แรกที่ร้าน Freddy Fazbear’s Pizza และพบว่าหุ่นแอนิเมทรอนิกส์ในร้านมีชีวิตขึ้นมาไล่ล่ าฆ่าผู้คน ซึ่งนั่นเองทำให้เขารู้ว่าการจะเอาตัวรอดให้ผ่านค่ำค ืนนี้ไปได้ไม่ใช่เรื่องง่ายเลย



    General
    Unique ID : 271206589983066564098217382151705776445 (0xCC087D413712D1EB3BF65BB273B6D13D)
    Format : Matroska
    Format version : Version 4
    File size : 11.6 GiB
    Duration : 1 h 49 min
    Overall bit rate : 15.2 Mb/s
    Frame rate : 23.976 FPS
    Encoded date : 2023-10-30 21:43:09 UTC
    Writing application : mkvmerge v79.0 ('Funeral Pyres') 64-bit
    Writing library : libebml v1.4.4 + libmatroska v1.7.1

    Video
    ID : 1
    Format : HEVC
    Format/Info : High Efficiency Video Coding
    Format profile : Main 10@L5@Main
    HDR format : SMPTE ST 2086, HDR10 compatible
    Codec ID : V_MPEGH/ISO/HEVC
    Duration : 1 h 49 min
    Bit rate : 15.0 Mb/s
    Width : 3 840 pixels
    Height : 2 160 pixels
    Display aspect ratio : 16:9
    Frame rate mode : Constant
    Frame rate : 23.976 (24000/1001) FPS
    Color space : YUV
    Chroma subsampling : 4:2:0 (Type 2)
    Bit depth : 10 bits
    Bits/(Pixel*Frame) : 0.076
    Stream size : 11.5 GiB (99%)
    Writing library : x265 3.2.1+1-b5c86a64bbbe:[Linux][GCC 7.5.0][64 bit] 10bit
    Encoding settings : cpuid=1111039 / frame-threads=6 / wpp / no-pmode / no-pme / no-psnr / no-ssim / log-level=2 / input-csp=1 / input-res=3840x2160 / interlace=0 / total-frames=0 / level-idc=0 / high-tier=1 / uhd-bd=0 / ref=3 / no-allow-non-conformance / repeat-headers / annexb / aud / hrd / info / hash=1 / no-temporal-layers / no-open-gop / min-keyint=48 / keyint=48 / gop-lookahead=0 / bframes=4 / b-adapt=2 / b-pyramid / bframe-bias=0 / rc-lookahead=20 / lookahead-slices=8 / scenecut=0 / radl=0 / no-splice / no-intra-refresh / ctu=64 / min-cu-size=8 / no-rect / no-amp / max-tu-size=32 / tu-inter-depth=1 / tu-intra-depth=1 / limit-tu=0 / rdoq-level=0 / dynamic-rd=0.00 / no-ssim-rd / signh-i-d-e / no-tskip / nr-intra=0 / nr-inter=0 / no-constrained-intra / strong-intra-smoothing / max-merge=3 / limit-refs=1 / no-limit-modes / me=1 / subme=2 / merange=57 / temporal-mvp / no-hme / weightp / no-weightb / no-analyze-src-pics / deblock=0:0 / no-sao / no-sao-non-deblock / rd=3 / selective-sao=0 / early-skip / no-rskip / no-fast-intra / no-tskip-fast / no-cu-lossless / b-intra / no-splitrd-skip / rdpenalty=0 / psy-rd=4.00 / psy-rdoq=0.00 / no-rd-refine / no-lossless / cbqpoffs=0 / crqpoffs=0 / rc=abr / bitrate=15000 / qcomp=0.60 / qpstep=1 / stats-write=0 / stats-read=2 / cplxblur=20.0 / qblur=0.5 / vbv-maxrate=22500 / vbv-bufsize=22500 / vbv-init=1.0 / ipratio=1.10 / pbratio=1.00 / aq-mode=0 / aq-strength=0.00 / no-cutree / zone-count=0 / no-strict-cbr / qg-size=32 / rc-grain / qpmax=69 / qpmin=0 / const-vbv / sar=1 / overscan=0 / videoformat=5 / range=0 / colorprim=9 / transfer=16 / colormatrix=9 / chromaloc=1 / chromaloc-top=2 / chromaloc-bottom=2 / display-window=0 / master-display=G(13250,34500)B(7500,3000)R(34000,16000)WP (15635,16450)L(10000000,1) / cll=0,0 / min-luma=0 / max-luma=1023 / log2-max-poc-lsb=8 / vui-timing-info / vui-hrd-info / slices=1 / no-opt-qp-pps / no-opt-ref-list-length-pps / no-multi-pass-opt-rps / scenecut-bias=0.05 / no-opt-cu-delta-qp / no-aq-motion / hdr / hdr-opt / no-dhdr10-opt / no-idr-recovery-sei / analysis-reuse-level=5 / scale-factor=0 / refine-intra=0 / refine-inter=0 / refine-mv=1 / refine-ctu-distortion=0 / no-limit-sao / ctu-info=0 / no-lowpass-dct / refine-analysis-type=0 / copy-pic=1 / max-ausize-factor=1.0 / no-dynamic-refine / no-single-sei / no-hevc-aq / no-svt / no-field / qp-adaptation-range=1.00
    Default : Yes
    Forced : No
    Color range : Limited
    Color primaries : BT.2020
    Transfer characteristics : PQ
    Matrix coefficients : BT.2020 non-constant
    Mastering display color primaries : Display P3
    Mastering display luminance : min: 0.0001 cd/m2, max: 1000 cd/m2

    Audio
    ID : 2
    Format : E-AC-3
    Format/Info : Enhanced AC-3
    Commercial name : Dolby Digital Plus
    Codec ID : A_EAC3
    Duration : 1 h 49 min
    Bit rate mode : Constant
    Bit rate : 192 kb/s
    Channel(s) : 6 channels
    Channel layout : L R C LFE Ls Rs
    Sampling rate : 48.0 kHz
    Frame rate : 31.250 FPS (1536 SPF)
    Compression mode : Lossy
    Stream size : 150 MiB (1%)
    Title : Soundtrack
    Language : English
    Service kind : Complete Main
    Default : Yes
    Forced : No

    Text #1
    ID : 3
    Format : UTF-8
    Codec ID : S_TEXT/UTF8
    Codec ID/Info : UTF-8 Plain Text
    Duration : 1 h 49 min
    Bit rate : 52 b/s
    Frame rate : 0.257 FPS
    Count of elements : 1682
    Stream size : 42.3 KiB (0%)
    Title : English
    Language : English
    Default : No
    Forced : No

    Text #2
    ID : 4
    Format : UTF-8
    Codec ID : S_TEXT/UTF8
    Codec ID/Info : UTF-8 Plain Text
    Duration : 1 h 49 min
    Bit rate : 47 b/s
    Frame rate : 0.227 FPS
    Count of elements : 1486
    Stream size : 38.0 KiB (0%)
    Title : Spanish
    Language : Spanish
    Default : No
    Forced : No

    Text #3
    ID : 5
    Format : UTF-8
    Codec ID : S_TEXT/UTF8
    Codec ID/Info : UTF-8 Plain Text
    Duration : 1 h 44 min
    Bit rate : 85 b/s
    Frame rate : 0.174 FPS
    Count of elements : 1090
    Stream size : 65.1 KiB (0%)
    Title : Thai
    Language : Thai
    Default : Yes
    Forced : No

    Five.Nights.At.Freddys.2023.HDR10.2160p.WEB-DL.H265.TH-EN.mkv
    http://www.filecondo.com/dl.php?f=9791371R0gix

    12.49 GB

  2. The Following User Says Thank You to Duckload.us For This Useful Post:

    Wesker_TOT (11-09-2023)

  3. #2
    Senior Member
    สมัครเมื่อ
    Dec 2013
    โพสต์
    6,282
    Thanks
    8,265
    Thanked 0 Times in 0 Posts
    ขอบคุณครับ...

+ ตอบกลับกระทู้

ข้อมูลกระทู้

Users Browsing this Thread

ในขณะนี้มี 1 ท่านดูกระทู้อยู่. (0 สมาชิกและ 1 ผู้เยี่ยมชม)

     

กฎการโพสต์ข้อความ

  • ท่าน ไม่สามารถ ตั้งกระทู้ใหม่ได้
  • ท่าน ไม่สามารถ ตอบกระทู้ได้
  • ท่าน ไม่สามารถ แนบไฟล์ได้
  • ท่าน ไม่สามารถ แก้ไขข้อความโพสต์ได้
  • BB code สถานะ เปิด
  • Smilies สถานะ เปิด
  • [IMG] สถานะ เปิด
  • HTML สถานะ ปิด