+ ตอบกลับกระทู้
สรุปผลการค้นหา 1 ถึง 3 จากทั้งหมด 3
  1. #1
    Administrators รูปส่วนตัว Duckload.us
    สมัครเมื่อ
    Dec 2010
    โพสต์
    149,921
    Thanks
    7
    Thanked 156,886 Times in 68,557 Posts

    Lightbulb [ฝรั่ง]-| BDRemux | Immortals (2011) - เทพเจ้าธนูอมตะ | H264 1080p | พากย์ไทย บรรยายไทย |



    Immortals อัครสงคราม แห่งทวยเทพและ.มวลมนุษย์ตามตำนานของเทพนิยายกรีก ธนูแห่งเอพิรุส คือเอาวุธที่ทรงพลังที่สุดบนพื้นพิภพ ถูกสร้างด้วยน้ำมือของ เอเรส เทพเจ้าแห่งสงคราม ที่ซ่อนเอาไว้ในหินผาเพื่อไม่ให้ใครเป็นเจ้าของ เพราะผู้ใดก็ตามที่ครอบครองศาสตราวุธชิ้นนี้ ก็จะมีอำนาจเหนือมวลมนุษย์และ.เหล่าทวยเทพ ทุกคนต่างต้องการเป็นเจ้าของธนูแห่งเอพิรุส โดยเฉพาะ ไฮเพอร์เรียน.(มิคกี้ รู้ค).กษัตริย์คลั่งอำนาจ ที่ประกาศสงครามกับเหล่าทวยเทพ เขารวบรวมกองทัพกระหายเลือดเพื่อพลิกแผ่น.ดินหาอาวุธ ด้วยกฏเหล็กของเทพเจ้า ที่ไม่สามารถยุ่งเกี่ยวกับความขัดแย้งบนโลก เทพซีอุสจึงได้เลือกมนุษย์ที่ชื่อ เธซีอุส.(เฮนรี่ คาวิลล์).ที่เป็นความหวังเดียวที่จะหยุดยั้ง ไฮเพอร์เรียน และ.ช่วยเหลือมนุษย์เอาไว้ได้...

    General
    Complete name : Immortals.2011.BDRemux.AVC.1080p.mkv
    Format : Matroska
    Format version : Version 4
    File size : 28.3 GiB
    Duration : 1 h 50 min
    Overall bit rate mode : Variable
    Overall bit rate : 36.7 Mb/s
    Encoded date : UTC 2023-11-13 12:21:54
    Writing application : mkvmerge v78.0 ('Running') 64-bit
    Writing library : libebml v1.4.4 + libmatroska v1.7.1
    Attachments : poster.jpg

    Video
    ID : 1
    Format : AVC
    Format/Info : Advanced Video Codec
    Format profile : [email protected]
    Format settings : CABAC / 4 Ref Frames
    Format settings, CABAC : Yes
    Format settings, Reference frames : 4 frames
    Codec ID : V_MPEG4/ISO/AVC
    Duration : 1 h 50 min
    Bit rate mode : Variable
    Bit rate : 31.8 Mb/s
    Maximum bit rate : 38.0 Mb/s
    Width : 1 920 pixels
    Height : 1 080 pixels
    Display aspect ratio : 16:9
    Frame rate mode : Constant
    Frame rate : 23.976 (24000/1001) FPS
    Color space : YUV
    Chroma subsampling : 4:2:0
    Bit depth : 8 bits
    Scan type : Progressive
    Bits/(Pixel*Frame) : 0.639
    Stream size : 24.5 GiB (87%)
    Language : English
    Default : No
    Forced : No

    Audio #1
    ID : 2
    Format : AC-3
    Format/Info : Audio Coding 3
    Commercial name : Dolby Digital
    Codec ID : A_AC3
    Duration : 1 h 50 min
    Bit rate mode : Constant
    Bit rate : 448 kb/s
    Channel(s) : 6 channels
    Channel layout : L R C LFE Ls Rs
    Sampling rate : 48.0 kHz
    Frame rate : 31.250 FPS (1536 SPF)
    Compression mode : Lossy
    Stream size : 354 MiB (1%)
    Title : DD 5.1
    Language : Thai
    Service kind : Complete Main
    Default : Yes
    Forced : No

    Audio #2
    ID : 3
    Format : DTS XLL
    Format/Info : Digital Theater Systems
    Commercial name : DTS-HD Master Audio
    Codec ID : A_DTS
    Duration : 1 h 50 min
    Bit rate mode : Variable
    Bit rate : 4 439 kb/s
    Channel(s) : 6 channels
    Channel layout : C L R Ls Rs LFE
    Sampling rate : 48.0 kHz
    Frame rate : 93.750 FPS (512 SPF)
    Bit depth : 24 bits
    Compression mode : Lossless
    Stream size : 3.42 GiB (12%)
    Title : DTS-HD MA 5.1
    Language : English
    Default : No
    Forced : No

    Text #1
    ID : 4
    Format : PGS
    Muxing mode : zlib
    Codec ID : S_HDMV/PGS
    Codec ID/Info : Picture based subtitle format used on BDs/HD-DVDs
    Duration : 1 h 41 min
    Bit rate : 17.7 kb/s
    Frame rate : 0.251 FPS
    Count of elements : 1532
    Stream size : 12.9 MiB (0%)
    Title : PGS
    Language : Thai
    Default : No
    Forced : No

    Text #2
    ID : 5
    Format : PGS
    Muxing mode : zlib
    Codec ID : S_HDMV/PGS
    Codec ID/Info : Picture based subtitle format used on BDs/HD-DVDs
    Duration : 1 h 41 min
    Bit rate : 18.3 kb/s
    Frame rate : 0.251 FPS
    Count of elements : 1532
    Stream size : 13.3 MiB (0%)
    Title : PGS
    Language : Thai
    Default : No
    Forced : No

    Text #3
    ID : 6
    Format : UTF-8
    Codec ID : S_TEXT/UTF8
    Codec ID/Info : UTF-8 Plain Text
    Duration : 1 h 41 min
    Bit rate : 79 b/s
    Frame rate : 0.126 FPS
    Count of elements : 766
    Stream size : 59.0 KiB (0%)
    Title : SRT
    Language : Thai
    Default : No
    Forced : No

    Text #4
    ID : 7
    Format : PGS
    Muxing mode : zlib
    Codec ID : S_HDMV/PGS
    Codec ID/Info : Picture based subtitle format used on BDs/HD-DVDs
    Duration : 1 h 49 min
    Bit rate : 23.8 kb/s
    Frame rate : 0.258 FPS
    Count of elements : 1686
    Stream size : 18.5 MiB (0%)
    Title : PGS
    Language : English
    Default : No
    Forced : No






    Immortals.2011.BDRemux.AVC.1080p.mkv
    http://www.filecondo.com/dl.php?f=U51be11R2Vwj
    30.4 GB

  2. The Following 2 Users Say Thank You to Duckload.us For This Useful Post:

    scsyn (11-18-2023), Wesker_TOT (11-26-2023)

  3. #2
    Senior Member
    สมัครเมื่อ
    Feb 2017
    โพสต์
    154
    Thanks
    0
    Thanked 0 Times in 0 Posts
    ขอบคุณครับ

  4. #3
    Senior Member
    สมัครเมื่อ
    Dec 2013
    โพสต์
    6,002
    Thanks
    7,984
    Thanked 0 Times in 0 Posts
    ขอบคุณครับ...

+ ตอบกลับกระทู้

ข้อมูลกระทู้

Users Browsing this Thread

ในขณะนี้มี 1 ท่านดูกระทู้อยู่. (0 สมาชิกและ 1 ผู้เยี่ยมชม)

     

กฎการโพสต์ข้อความ

  • ท่าน ไม่สามารถ ตั้งกระทู้ใหม่ได้
  • ท่าน ไม่สามารถ ตอบกระทู้ได้
  • ท่าน ไม่สามารถ แนบไฟล์ได้
  • ท่าน ไม่สามารถ แก้ไขข้อความโพสต์ได้
  • BB code สถานะ เปิด
  • Smilies สถานะ เปิด
  • [IMG] สถานะ เปิด
  • HTML สถานะ ปิด