+ ตอบกลับกระทู้
สรุปผลการค้นหา 1 ถึง 3 จากทั้งหมด 3
  1. #1
    Administrators รูปส่วนตัว Duckload.us
    สมัครเมื่อ
    Dec 2010
    โพสต์
    149,921
    Thanks
    7
    Thanked 156,887 Times in 68,557 Posts

    Lightbulb [ฝรั่ง]-| BDRemux | Miami Vice (2006) - ไมอามี่ ไวซ์ คู่เดือดไมอามี่ | H264 1080p | พากย์ไทย บรรยายไทย |



    ริคาร์โด้ ทับบ์ส (เจมี่ ฟ็อกซ์) เป็นพวกมารยาทงามและฉลาดเป็นกรด เขาใช้ชีวิตอยู่กับนักวิเคราะห์คอมพิวเตอร์สาวชาวบรอ งซ์ที่ชื่อทรูดี้ (นาโอมี่ แฮร์ริส) พวกเขาแอบแฝงตัวเข้าไปทำงานขนยาเสพติดไปยังเซ้าธ์ฟลอ ริด้าเพื่อหาตัวแก๊งค์ที่ต้องรับผิดชอบการฆาตกรรมสาม ราย ซันนี่ คร็อคเก็ตต์ (โคลิน ฟาร์เรลล์) เป็นหนุ่มมากความสามารถและเจ้าชู้จนกระทั่งขณะแฝงตัว เข้าไปทำงานกับพวกจัดหายาให้แก๊งค์ในเซ้าธ์ฟลอริด้า เขาได้เข้าไปยุ่งเกี่ยวกับอิซาเบลล่า (กงลี่)การปลอมตัวที่แนบเนียนที่สุดกลายเป็นหายนะ ข้อจำกัดถูกละทิ้ง ความตึงเครียดของคดีนี้บีบให้คร็อคเก็ตต์และทับบ์ต้อ งเดินหน้าไปจนถึงขีดสุดเมื่อตัวตนที่แท้จริงและการปล อมตัวเริ่มพร่าเลือน ตำรวจและผู้ร้ายกลายเป็นหนึ่งเดียวกันโดยเฉพาะเมื่อค ร็อคเก็ตต์เกิดไปรักกับอิซาเบลล่า และสำหรับทับบ์เมื่อคนที่เขารักโดนทำร้าย Miami Vice ภาพยนตร์ฟอร์มยักษ์ เปิดเผยให้เห็นถึงอันตรายและสิ่งยั่วยวนในงานสายสืบ โดยเฉพาะเมื่อคร็อคเก็ตต์และทับบ์สเดินหน้าไปถึงจุดท ี่ตราตำรวจไม่สามารถช่วยอะไรได้...

    General
    Complete name : Miami.Vice.2006.BDRemux.VC-1.1080p.mkv
    Format : Matroska
    Format version : Version 4
    File size : 31.5 GiB
    Duration : 2 h 12 min
    Overall bit rate mode : Variable
    Overall bit rate : 34.1 Mb/s
    Encoded date : UTC 2023-11-13 15:35:15
    Writing application : mkvmerge v78.0 ('Running') 64-bit
    Writing library : libebml v1.4.4 + libmatroska v1.7.1
    Attachments : poster.jpg

    Video
    ID : 1
    ID in the original source medium : 4113 (0x1011)
    Format : VC-1
    Format profile : Advanced@L3
    Codec ID : V_MS/VFW/FOURCC / WVC1
    Codec ID/Hint : Microsoft
    Duration : 2 h 12 min
    Bit rate : 29.9 Mb/s
    Width : 1 920 pixels
    Height : 1 080 pixels
    Display aspect ratio : 16:9
    Frame rate mode : Constant
    Frame rate : 23.976 (24000/1001) FPS
    Color space : YUV
    Chroma subsampling : 4:2:0
    Bit depth : 8 bits
    Scan type : Progressive
    Compression mode : Lossy
    Bits/(Pixel*Frame) : 0.602
    Stream size : 27.6 GiB (88%)
    Default : Yes
    Forced : No
    Original source medium : Blu-ray

    Audio #1
    ID : 2
    ID in the original source medium : 4359 (0x1107)
    Format : AC-3
    Format/Info : Audio Coding 3
    Commercial name : Dolby Digital
    Codec ID : A_AC3
    Duration : 2 h 12 min
    Bit rate mode : Constant
    Bit rate : 448 kb/s
    Channel(s) : 6 channels
    Channel layout : L R C LFE Ls Rs
    Sampling rate : 48.0 kHz
    Frame rate : 31.250 FPS (1536 SPF)
    Compression mode : Lossy
    Stream size : 424 MiB (1%)
    Title : DD 5.1
    Language : Thai
    Service kind : Complete Main
    Default : Yes
    Forced : No
    Original source medium : Blu-ray

    Audio #2
    ID : 3
    ID in the original source medium : 4352 (0x1100)
    Format : DTS XLL
    Format/Info : Digital Theater Systems
    Commercial name : DTS-HD Master Audio
    Codec ID : A_DTS
    Duration : 2 h 12 min
    Bit rate mode : Variable
    Bit rate : 3 749 kb/s
    Channel(s) : 6 channels
    Channel layout : C L R Ls Rs LFE
    Sampling rate : 48.0 kHz
    Frame rate : 93.750 FPS (512 SPF)
    Bit depth : 24 bits
    Compression mode : Lossless
    Stream size : 3.46 GiB (11%)
    Title : DTS-HD MA 5.1
    Language : English
    Default : No
    Forced : No
    Original source medium : Blu-ray

    Text #1
    ID : 4
    ID in the original source medium : 4626 (0x1212)
    Format : PGS
    Muxing mode : zlib
    Codec ID : S_HDMV/PGS
    Codec ID/Info : Picture based subtitle format used on BDs/HD-DVDs
    Duration : 2 h 4 min
    Bit rate : 103 b/s
    Frame rate : 0.002 FPS
    Count of elements : 12
    Stream size : 94.3 KiB (0%)
    Title : Forced
    Language : Thai
    Default : Yes
    Forced : Yes
    Original source medium : Blu-ray

    Text #2
    ID : 5
    ID in the original source medium : 4614 (0x1206)
    Format : PGS
    Muxing mode : zlib
    Codec ID : S_HDMV/PGS
    Codec ID/Info : Picture based subtitle format used on BDs/HD-DVDs
    Duration : 2 h 10 min
    Bit rate : 14.9 kb/s
    Frame rate : 0.249 FPS
    Count of elements : 1952
    Stream size : 13.9 MiB (0%)
    Title : PGS
    Language : Thai
    Default : No
    Forced : No
    Original source medium : Blu-ray

    Text #3
    ID : 6
    Format : PGS
    Muxing mode : zlib
    Codec ID : S_HDMV/PGS
    Codec ID/Info : Picture based subtitle format used on BDs/HD-DVDs
    Duration : 2 h 1 min
    Bit rate : 16.5 kb/s
    Frame rate : 0.268 FPS
    Count of elements : 1950
    Stream size : 14.3 MiB (0%)
    Title : PGS
    Language : Thai
    Default : No
    Forced : No

    Text #4
    ID : 7
    Format : PGS
    Muxing mode : zlib
    Codec ID : S_HDMV/PGS
    Codec ID/Info : Picture based subtitle format used on BDs/HD-DVDs
    Duration : 2 h 1 min
    Bit rate : 17.0 kb/s
    Frame rate : 0.268 FPS
    Count of elements : 1950
    Stream size : 14.8 MiB (0%)
    Title : PGS
    Language : Thai
    Default : No
    Forced : No

    Text #5
    ID : 8
    Format : UTF-8
    Codec ID : S_TEXT/UTF8
    Codec ID/Info : UTF-8 Plain Text
    Duration : 2 h 1 min
    Bit rate : 73 b/s
    Frame rate : 0.134 FPS
    Count of elements : 975
    Stream size : 65.3 KiB (0%)
    Title : SRT
    Language : Thai
    Default : No
    Forced : No

    Text #6
    ID : 9
    ID in the original source medium : 4608 (0x1200)
    Format : PGS
    Muxing mode : zlib
    Codec ID : S_HDMV/PGS
    Codec ID/Info : Picture based subtitle format used on BDs/HD-DVDs
    Duration : 2 h 2 min
    Bit rate : 25.7 kb/s
    Frame rate : 0.287 FPS
    Count of elements : 2109
    Stream size : 22.5 MiB (0%)
    Title : PGS
    Language : English
    Default : No
    Forced : No
    Original source medium : Blu-ray






    Miami.Vice.2006.BDRemux.VC-1.1080p.mkv
    http://www.filecondo.com/dl.php?f=Cd6cd11R2W53
    33.85 GB

  2. The Following 2 Users Say Thank You to Duckload.us For This Useful Post:

    scsyn (11-27-2023), Wesker_TOT (11-16-2023)

  3. #2
    Senior Member
    สมัครเมื่อ
    Dec 2013
    โพสต์
    6,002
    Thanks
    7,984
    Thanked 0 Times in 0 Posts
    ขอบคุณครับ...

  4. #3
    Senior Member
    สมัครเมื่อ
    Feb 2017
    โพสต์
    154
    Thanks
    0
    Thanked 0 Times in 0 Posts
    ขอบคุณมากครับ

+ ตอบกลับกระทู้

ข้อมูลกระทู้

Users Browsing this Thread

ในขณะนี้มี 1 ท่านดูกระทู้อยู่. (0 สมาชิกและ 1 ผู้เยี่ยมชม)

     

กฎการโพสต์ข้อความ

  • ท่าน ไม่สามารถ ตั้งกระทู้ใหม่ได้
  • ท่าน ไม่สามารถ ตอบกระทู้ได้
  • ท่าน ไม่สามารถ แนบไฟล์ได้
  • ท่าน ไม่สามารถ แก้ไขข้อความโพสต์ได้
  • BB code สถานะ เปิด
  • Smilies สถานะ เปิด
  • [IMG] สถานะ เปิด
  • HTML สถานะ ปิด