+ ตอบกลับกระทู้
สรุปผลการค้นหา 1 ถึง 3 จากทั้งหมด 3
  1. #1
    Administrators รูปส่วนตัว Duckload.us
    สมัครเมื่อ
    Dec 2010
    โพสต์
    149,910
    Thanks
    7
    Thanked 156,879 Times in 68,552 Posts

    Lightbulb [Netflix] Life on Our Planet : Season 1 (2023) ชีวิตบนโลกของเรา [พากย์ไทย/English 5.1]-WEB-DL.H.264.1080p.



    สารคดีอันน่าทึ่งชุดนี้ได้บริษัทเทคนิคพิเศษด้านภาพท ี่อยู่เบื้องหลัง Jurassic Park มาร่วมรังสรรค์สิ่งมีชีวิตที่สูญพันธุ์ไปแล้วให้ออกม าเป็นภาพได้อย่างยิ่งใหญ่ตระการตา

    Video
    ID : 1
    Format : AVC
    Format/Info : Advanced Video Codec
    Format profile : High@L4
    Format settings : CABAC / 4 Ref Frames
    Format settings, CABAC : Yes
    Format settings, Reference frames : 4 frames
    Codec ID : V_MPEG4/ISO/AVC
    Duration : 42 min 48 s
    Bit rate mode : Variable
    Bit rate : 6 359 kb/s
    Maximum bit rate : 20.0 Mb/s
    Width : 1 920 pixels
    Height : 1 080 pixels
    Display aspect ratio : 16:9
    Frame rate mode : Constant
    Frame rate : 23.976 (24000/1001) FPS
    Color space : YUV
    Chroma subsampling : 4:2:0
    Bit depth : 8 bits
    Scan type : Progressive
    Bits/(Pixel*Frame) : 0.128
    Stream size : 1.90 GiB (82%)
    Writing library : x264 core 148 r2727 7d026e8
    Encoding settings : cabac=1 / ref=4 / deblock=1:0:0 / analyse=0x3:0x111 / me=umh / subme=10 / psy=1 / psy_rd=1.00:0.00 / mixed_ref=1 / me_range=120 / chroma_me=1 / trellis=2 / 8x8dct=1 / cqm=0 / deadzone=21,11 / fast_pskip=1 / chroma_qp_offset=-2 / threads=6 / lookahead_threads=1 / sliced_threads=0 / nr=0 / decimate=1 / interlaced=0 / bluray_compat=0 / stitchable=1 / constrained_intra=0 / bframes=16 / b_pyramid=2 / b_adapt=2 / b_bias=0 / direct=3 / weightb=1 / open_gop=0 / weightp=2 / keyint=240 / keyint_min=121 / scenecut=0 / intra_refresh=0 / rc_lookahead=240 / rc=crf / mbtree=1 / crf=16.0 / qcomp=0.50 / qpmin=6 / qpmax=51 / qpstep=4 / vbv_maxrate=20000 / vbv_bufsize=25000 / crf_max=0.0 / nal_hrd=vbr / filler=0 / ip_ratio=1.40 / aq=1:0.80
    Default : Yes
    Forced : No

    Audio #1
    ID : 2
    Format : E-AC-3 JOC
    Format/Info : Enhanced AC-3 with Joint Object Coding
    Commercial name : Dolby Digital Plus with Dolby Atmos
    Codec ID : A_EAC3
    Duration : 41 min 46 s
    Bit rate mode : Constant
    Bit rate : 768 kb/s
    Channel(s) : 6 channels
    Channel layout : L R C LFE Ls Rs
    Sampling rate : 48.0 kHz
    Frame rate : 31.250 FPS (1536 SPF)
    Compression mode : Lossy
    Stream size : 230 MiB (10%)
    Language : English
    Service kind : Complete Main
    Default : Yes
    Forced : No
    Complexity index : 16
    Number of dynamic objects : 15
    Bed channel count : 1 channel
    Bed channel configuration : LFE

    Audio #2
    ID : 3
    Format : E-AC-3
    Format/Info : Enhanced AC-3
    Commercial name : Dolby Digital Plus
    Codec ID : A_EAC3
    Duration : 42 min 49 s
    Bit rate mode : Constant
    Bit rate : 640 kb/s
    Channel(s) : 6 channels
    Channel layout : L R C LFE Ls Rs
    Sampling rate : 48.0 kHz
    Frame rate : 31.250 FPS (1536 SPF)
    Compression mode : Lossy
    Stream size : 196 MiB (8%)
    Language : Thai
    Service kind : Complete Main
    Default : No
    Forced : No

    Text #1
    ID : 4
    Format : UTF-8
    Codec ID : S_TEXT/UTF8
    Codec ID/Info : UTF-8 Plain Text
    Duration : 30 min 46 s
    Bit rate : 1 b/s
    Frame rate : 0.005 FPS
    Count of elements : 9
    Stream size : 398 Bytes (0%)
    Title : Forced
    Language : Thai
    Default : No
    Forced : Yes

    Text #2
    ID : 5
    Format : UTF-8
    Codec ID : S_TEXT/UTF8
    Codec ID/Info : UTF-8 Plain Text
    Duration : 39 min 11 s
    Bit rate : 94 b/s
    Frame rate : 0.099 FPS
    Count of elements : 232
    Stream size : 27.1 KiB (0%)
    Language : Thai
    Default : No
    Forced : No

    Text #3
    ID : 6
    Format : UTF-8
    Codec ID : S_TEXT/UTF8
    Codec ID/Info : UTF-8 Plain Text
    Duration : 41 min 21 s
    Bit rate : 93 b/s
    Frame rate : 0.116 FPS
    Count of elements : 287
    Stream size : 28.4 KiB (0%)
    Language : Thai
    Default : No
    Forced : No

    Text #4
    ID : 7
    Format : UTF-8
    Codec ID : S_TEXT/UTF8
    Codec ID/Info : UTF-8 Plain Text
    Duration : 39 min 44 s
    Bit rate : 54 b/s
    Frame rate : 0.190 FPS
    Count of elements : 454
    Stream size : 15.8 KiB (0%)
    Title : SDH
    Language : English
    Default : No
    Forced : No

    Menu
    00:00:00.000 : en:Part 01
    00:39:48.450 : en:Credits



    Life.on.Our.Planet.S01E08.Chapter.8.Age.of.Ice.and .Fire.1080p.NF.WEB-DL.DDP5.1.Atmos.H.264-MESSI.mkv
    http://www.filecondo.com/dl.php?f=u75b4f1R3Bs1

    Life.on.Our.Planet.S01E07.Chapter.7.Inheriting.the .Earth.1080p.NF.WEB-DL.DDP5.1.Atmos.H.264-MESSI.mkv
    http://www.filecondo.com/dl.php?f=E6161c1R3Br5

    Life.on.Our.Planet.S01E06.Chapter.6.Out.of.the.Ash es.1080p.NF.WEB-DL.DDP5.1.Atmos.H.264-MESSI.mkv
    http://www.filecondo.com/dl.php?f=s0ff8b1R3Bq5

    Life.on.Our.Planet.S01E05.Chapter.5.In.the.Shadow. of.Giants.1080p.NF.WEB-DL.DDP5.1.Atmos.H.264-MESSI.mkv
    http://www.filecondo.com/dl.php?f=i36bcd1R3Bp6

    Life.on.Our.Planet.S01E04.Chapter.4.In.Cold.Blood. 1080p.NF.WEB-DL.DDP5.1.Atmos.H.264-MESSI.mkv
    http://www.filecondo.com/dl.php?f=b2c3e71R3Bob

    Life.on.Our.Planet.S01E03.Chapter.3.Invaders.of.th e.Land.1080p.NF.WEB-DL.DDP5.1.Atmos.H.264-MESSI.mkv
    http://www.filecondo.com/dl.php?f=m499c71R3Bnc

    Life.on.Our.Planet.S01E02.Chapter.2.The.First.Fron tier.1080p.NF.WEB-DL.DDP5.1.Atmos.H.264-MESSI.mkv
    http://www.filecondo.com/dl.php?f=R42da81R3Bmf

    Life.on.Our.Planet.S01E01.Chapter.1.The.Rules.of.L ife.1080p.NF.WEB-DL.DDP5.1.Atmos.H.264-MESSI.mkv
    http://www.filecondo.com/dl.php?f=Aa1b4c1R3Ble

  2. #2
    Senior Member
    สมัครเมื่อ
    Jul 2012
    โพสต์
    8,593
    Thanks
    0
    Thanked 0 Times in 0 Posts
    ขอบคุณมากจ้า

  3. #3
    Senior Member
    สมัครเมื่อ
    Jul 2013
    โพสต์
    3,644
    Thanks
    0
    Thanked 0 Times in 0 Posts
    ขอบคุณครับ

+ ตอบกลับกระทู้

ข้อมูลกระทู้

Users Browsing this Thread

ในขณะนี้มี 1 ท่านดูกระทู้อยู่. (0 สมาชิกและ 1 ผู้เยี่ยมชม)

     

กฎการโพสต์ข้อความ

  • ท่าน ไม่สามารถ ตั้งกระทู้ใหม่ได้
  • ท่าน ไม่สามารถ ตอบกระทู้ได้
  • ท่าน ไม่สามารถ แนบไฟล์ได้
  • ท่าน ไม่สามารถ แก้ไขข้อความโพสต์ได้
  • BB code สถานะ เปิด
  • Smilies สถานะ เปิด
  • [IMG] สถานะ เปิด
  • HTML สถานะ ปิด