+ ตอบกลับกระทู้
สรุปผลการค้นหา 1 ถึง 2 จากทั้งหมด 2
  1. #1
    Administrators รูปส่วนตัว Duckload.us
    สมัครเมื่อ
    Dec 2010
    โพสต์
    152,251
    Thanks
    7
    Thanked 159,160 Times in 69,626 Posts

    Lightbulb [ญี่ปุ่น]-Doctor X หมอซ่าส์พันธุ์เอ็กซ์ Season 7 [เสียง:ญี่ปู่น-ไทย True ID AC-3][บรรยาย: ไทย PGS/VobSub Netflix และ อังกฤษ SRT]-WEB-DL.H.264.1080p. [From HD-TV]-[พากย์ไทย บรรยายไทย]



    แพทย์อิสระที่ได้เข้าทำงานในโรงพยาบาลมหาวิทยาลัยที่ กำลังสูญเสียอำนาจและ ขาดแคลนบุคลากรนื่องจากสภาพการทำงานที่หนักขึ้นทำให้ แพทย์หลายคนต้องลาออกไป
    การเข้ามาทำงานของเธอในฐานะแพทย์อิสระจึงไม่ได้รับกา รยอมรับ เธอต้องใช้ทักษะการผ่าตัดอันเฉียบคมเพื่อพิสูจน์ตัวเ อง


    Video
    ID : 1
    Format : AVC
    Format/Info : Advanced Video Codec
    Format profile : High@L4
    Format settings : CABAC / 4 Ref Frames
    Format settings, CABAC : Yes
    Format settings, Reference fra : 4 frames
    Codec ID : V_MPEG4/ISO/AVC
    Duration : 57 min 51 s
    Bit rate mode : Variable
    Bit rate : 7 110 kb/s
    Maximum bit rate : 20.0 Mb/s
    Width : 1 920 pixels
    Height : 1 080 pixels
    Display aspect ratio : 16:9
    Frame rate mode : Variable
    Frame rate : 29.970 FPS
    Color space : YUV
    Chroma subsampling : 4:2:0
    Bit depth : 8 bits
    Scan type : Progressive
    Bits/(Pixel*Frame) : 0.114
    Stream size : 2.87 GiB (93%)
    Writing library : x264 core 148 r2727 7d026e8
    Encoding settings : cabac=1 / ref=4 / deblock=1:0:0 / analyse=0x3:0x111 / me=umh / subme=10 / psy=1 / psy_rd=1.00:0.00 / mixed_ref=1 / me_range=120 / chroma_me=1 / trellis=2 / 8x8dct=1 / cqm=0 / deadzone=21,11 / fast_pskip=1 / chroma_qp_offset=-2 / threads=8 / lookahead_threads=2 / sliced_threads=0 / nr=0 / decimate=1 / interlaced=0 / bluray_compat=0 / stitchable=1 / constrained_intra=0 / bframes=16 / b_pyramid=2 / b_adapt=2 / b_bias=0 / direct=3 / weightb=1 / open_gop=0 / weightp=2 / keyint=300 / keyint_min=151 / scenecut=0 / intra_refresh=0 / rc_lookahead=250 / rc=crf / mbtree=1 / crf=16.0 / qcomp=0.50 / qpmin=6 / qpmax=51 / qpstep=4 / vbv_maxrate=20000 / vbv_bufsize=25000 / crf_max=0.0 / nal_hrd=vbr / filler=0 / ip_ratio=1.40 / aq=1:0.80
    Default : Yes
    Forced : No

    Audio #1
    ID : 2
    Format : AC-3
    Format/Info : Audio Coding 3
    Commercial name : Dolby Digital
    Codec ID : A_AC3
    Duration : 57 min 50 s
    Bit rate mode : Constant
    Bit rate : 320 kb/s
    Channel(s) : 2 channels
    Channel layout : L R
    Sampling rate : 48.0 kHz
    Frame rate : 31.250 FPS (1536 SPF)
    Compression mode : Lossy
    Stream size : 132 MiB (4%)
    Title : [Thai-AC3]
    Language : Thai
    Service kind : Complete Main
    Default : Yes
    Forced : No

    Audio #2
    ID : 3
    Format : E-AC-3
    Format/Info : Enhanced AC-3
    Commercial name : Dolby Digital Plus
    Codec ID : A_EAC3
    Duration : 57 min 51 s
    Bit rate mode : Constant
    Bit rate : 128 kb/s
    Channel(s) : 2 channels
    Channel layout : L R
    Sampling rate : 48.0 kHz
    Frame rate : 31.250 FPS (1536 SPF)
    Compression mode : Lossy
    Stream size : 53.0 MiB (2%)
    Title : [Japanese-AC-3]
    Language : Japanese
    Service kind : Complete Main
    Default : No
    Forced : No

    Text #1
    ID : 4
    Format : PGS
    Muxing mode : zlib
    Codec ID : S_HDMV/PGS
    Codec ID/Info : Picture based subtitle format used on BDs/HD-DVDs
    Duration : 57 min 43 s
    Bit rate : 64.5 kb/s
    Count of elements : 1866
    Stream size : 26.6 MiB (1%)
    Title : Thai-PGS From Original NETFLIX
    Language : Thai
    Default : Yes
    Forced : Yes

    Text #2
    ID : 5
    Format : VobSub
    Muxing mode : zlib
    Codec ID : S_VOBSUB
    Codec ID/Info : Picture based subtitle format used on DVDs
    Duration : 57 min 43 s
    Bit rate : 12.6 kb/s
    Count of elements : 933
    Stream size : 5.21 MiB (0%)
    Title : Thai-VOBSUB From Original NETFLIX
    Language : Thai
    Default : No
    Forced : No

    Text #3
    ID : 6
    Format : UTF-8
    Codec ID : S_TEXT/UTF8
    Codec ID/Info : UTF-8 Plain Text
    Duration : 57 min 43 s
    Bit rate : 62 b/s
    Count of elements : 916
    Stream size : 26.5 KiB (0%)
    Title : English-SRT
    Language : English
    Default : No
    Forced : No



    Doctor.X.2021.S07E10.1080p.Modified_By_mxn.mkv
    http://www.filecondo.com/dl.php?f=s2cad61R4iTj

    Doctor.X.2021.S07E09.1080p.Modified_By_mxn.mkv
    http://www.filecondo.com/dl.php?f=l9b6e71R4iSo

    Doctor.X.2021.S07E08.1080p.Modified_By_mxn.mkv
    http://www.filecondo.com/dl.php?f=09feb61R4iRr

    Doctor.X.2021.S07E07.1080p.Modified_By_mxn.mkv
    http://www.filecondo.com/dl.php?f=E257411R4iQw

    Doctor.X.2021.S07E06.1080p.Modified_By_mxn.mkv
    http://www.filecondo.com/dl.php?f=L438cd1R4iPn

    Doctor.X.2021.S07E05.1080p.Modified_By_mxn.mkv
    http://www.filecondo.com/dl.php?f=41892b1R4iOs

    Doctor.X.2021.S07E04.1080p.Modified_By_mxn.mkv
    http://www.filecondo.com/dl.php?f=O194431R4iNv

    Doctor.X.2021.S07E03.1080p.Modified_By_mxn.mkv
    http://www.filecondo.com/dl.php?f=8fd3ae1R4iMx

    Doctor.X.2021.S07E02.1080p.Modified_By_mxn.mkv
    http://www.filecondo.com/dl.php?f=qa7f051R4iLw

    Doctor.X.2021.S07E01.1080p.Modified_By_mxn.mkv
    http://www.filecondo.com/dl.php?f=a125281R4iKA

  2. The Following 2 Users Say Thank You to Duckload.us For This Useful Post:

    scsyn (11-21-2023), Wesker_TOT (11-23-2023)

  3. #2
    Senior Member
    สมัครเมื่อ
    Dec 2013
    โพสต์
    6,298
    Thanks
    8,281
    Thanked 0 Times in 0 Posts
    ขอบคุณครับ...

+ ตอบกลับกระทู้

ข้อมูลกระทู้

Users Browsing this Thread

ในขณะนี้มี 1 ท่านดูกระทู้อยู่. (0 สมาชิกและ 1 ผู้เยี่ยมชม)

     

กฎการโพสต์ข้อความ

  • ท่าน ไม่สามารถ ตั้งกระทู้ใหม่ได้
  • ท่าน ไม่สามารถ ตอบกระทู้ได้
  • ท่าน ไม่สามารถ แนบไฟล์ได้
  • ท่าน ไม่สามารถ แก้ไขข้อความโพสต์ได้
  • BB code สถานะ เปิด
  • Smilies สถานะ เปิด
  • [IMG] สถานะ เปิด
  • HTML สถานะ ปิด