+ ตอบกลับกระทู้
สรุปผลการค้นหา 1 ถึง 3 จากทั้งหมด 3
  1. #1
    Administrators รูปส่วนตัว Duckload.us
    สมัครเมื่อ
    Dec 2010
    โพสต์
    149,921
    Thanks
    7
    Thanked 156,922 Times in 68,567 Posts

    Lightbulb [ฝรั่ง]-Terminator 2- Judgment Day (1991) {60FPS}.EnDts-ThM.ac3.5.1.ThMo5.1.อินทรี.sub.th-en-WEB-DL.AC-3.อื่น ๆ. [Modified]-[พากย์ไทย บรรยายไทย]




    General
    Complete name : Terminator 2- Judgment Day (1991) {60FPS}.EnDts-ThM.ac3.5.1.ThMo5.1.อินทรี.sub.th-en.mkv
    Format : Matroska
    Format version : Version 4
    File size : 11.6 GiB
    Duration : 2 h 33 min
    Overall bit rate : 10.8 Mb/s
    Movie name :Terminator 2- Judgment Day (1991) {60FPS}.EnDts-ThM.ac3.5.1.ThMo5.1.อินทรี.sub.th-en.
    Encoded date : UTC 2023-11-19 16:43:28
    Writing application : mkvmerge v45.0.0 ('Heaven in Pennies') 64-bit
    Writing library : libebml v1.3.10 + libmatroska v1.5.2

    Video
    ID : 1
    Format : AVC
    Format/Info : Advanced Video Codec
    Format settings : CABAC / 4 Ref Frames
    Format settings, CABAC : Yes
    Format settings, Reference fra : 4 frames
    Codec ID : V_MPEG4/ISO/AVC
    Duration : 2 h 33 min
    Bit rate : 8 967 kb/s
    Width : 1 920 pixels
    Height : 808 pixels
    Display aspect ratio : 2.40:1
    Frame rate mode : Constant
    Frame rate : 59.940 (59940/1000) FPS
    Color space : YUV
    Chroma subsampling : 4:2:0
    Bit depth : 8 bits
    Scan type : Progressive
    Bits/(Pixel*Frame) : 0.096
    Stream size : 9.61 GiB (83%)
    Language : English
    Default : Yes
    Forced : No

    Audio #1
    ID : 2
    Format : AC-3
    Format/Info : Audio Coding 3
    Commercial name : Dolby Digital
    Codec ID : A_AC3
    Duration : 2 h 33 min
    Bit rate mode : Constant
    Bit rate : 448 kb/s
    Channel(s) : 6 channels
    Channel layout : L R C LFE Ls Rs
    Sampling rate : 48.0 kHz
    Frame rate : 31.250 FPS (1536 SPF)
    Compression mode : Lossy
    Delay relative to video : 1 s 848 ms
    Stream size : 492 MiB (4%)
    Title : ThMo5.1 อินทรี
    Language : Thai
    Service kind : Complete Main
    Default : No
    Forced : No

    Audio #2
    ID : 3
    Format : AC-3
    Format/Info : Audio Coding 3
    Commercial name : Dolby Digital
    Codec ID : A_AC3
    Duration : 2 h 33 min
    Bit rate mode : Constant
    Bit rate : 640 kb/s
    Channel(s) : 6 channels
    Channel layout : L R C LFE Ls Rs
    Sampling rate : 48.0 kHz
    Frame rate : 31.250 FPS (1536 SPF)
    Compression mode : Lossy
    Delay relative to video : 1 s 864 ms
    Stream size : 702 MiB (6%)
    Title : [THAI AC3 FROM BLU-RAY MASTER]
    Language : Thai
    Service kind : Complete Main
    Default : Yes
    Forced : No

    Audio #3
    ID : 4
    Format : DTS
    Format/Info : Digital Theater Systems
    Codec ID : A_DTS
    Duration : 2 h 33 min
    Bit rate mode : Constant
    Bit rate : 755 kb/s
    Channel(s) : 6 channels
    Channel layout : C L R Ls Rs LFE
    Sampling rate : 48.0 kHz
    Frame rate : 93.750 FPS (512 SPF)
    Bit depth : 24 bits
    Compression mode : Lossy
    Delay relative to video : 1 s 848 ms
    Stream size : 828 MiB (7%)
    Title : [ENGLISH DTS FROM BLU-RAY MASTER]
    Language : English
    Default : No
    Forced : No

    Terminator_2-_Judgment_Day_(1991)_{60FPS}.EnDts-ThM.ac3.5.1.ThMo5.1.อินทรี.sub.th-en.mkv
    http://www.filecondo.com/dl.php?f=g011b41R76ey

    12.47 GB

  2. The Following User Says Thank You to Duckload.us For This Useful Post:

    Wesker_TOT (01-10-2024)

  3. #2
    Senior Member
    สมัครเมื่อ
    Jun 2014
    โพสต์
    5,087
    Thanks
    0
    Thanked 0 Times in 0 Posts
    version เสียงโรง HD ที่รอคอยมานาน
    ขอบคุณมากมายครับผม...

  4. #3
    Senior Member
    สมัครเมื่อ
    Dec 2013
    โพสต์
    6,005
    Thanks
    7,987
    Thanked 0 Times in 0 Posts
    ขอบคุณครับ...

+ ตอบกลับกระทู้

ข้อมูลกระทู้

Users Browsing this Thread

ในขณะนี้มี 1 ท่านดูกระทู้อยู่. (0 สมาชิกและ 1 ผู้เยี่ยมชม)

     

กฎการโพสต์ข้อความ

  • ท่าน ไม่สามารถ ตั้งกระทู้ใหม่ได้
  • ท่าน ไม่สามารถ ตอบกระทู้ได้
  • ท่าน ไม่สามารถ แนบไฟล์ได้
  • ท่าน ไม่สามารถ แก้ไขข้อความโพสต์ได้
  • BB code สถานะ เปิด
  • Smilies สถานะ เปิด
  • [IMG] สถานะ เปิด
  • HTML สถานะ ปิด