+ ตอบกลับกระทู้
สรุปผลการค้นหา 1 ถึง 2 จากทั้งหมด 2
  1. #1
    Administrators รูปส่วนตัว Duckload.us
    สมัครเมื่อ
    Dec 2010
    โพสต์
    149,921
    Thanks
    7
    Thanked 156,899 Times in 68,561 Posts

    Lightbulb [ฝรั่ง]-| BDRemux | American History X (1998) - อเมริกันนอกคอก | VC-1 1080p | พากย์ไทย บรรยายไทย |



    แดนนี่ วินยาร์ด เด็กหนุ่มผู้บูชาพี่ชายคนโต ดีเรค เป็นอย่างมาก ด้วยความตั้งใจที่จะแก้แค้นแทนบิดาที่ถูกฆ่าตายอย่าง ทารุณ ดีเรคพบว่าตนเองหลงใหลในปรัญญาแห่งความเกลียดชัง ซึ่งต่อมานำเขาไปสู่ผู้นำคนผิวขาวหัวรุนแรงในท้องถิ่ น และเป็นเพราะความรุนแรงนี่เอง ที่ทำให้เขาต้องไปชดใช้กรรมในคุก สามปีต่อมาทุกคน เฝ้ารอคอยการกลับมาของดีเรคด้วยความหวัง ไม่ว่าจะเป็น ดอริส แม่ผู้ซึ่งภาวนาให้เขาปลอดภัย สเตซี่ แฟนสาวผู้รอคอยการกลับมาของเขา และ แดนนี่ น้องชายผู้ผิดหวังกับความรักและการชี้นำของพี่ชาย

    General
    Complete name : American.History.X.1998.BDRemux.VC-1.1080p.mkv
    Format : Matroska
    Format version : Version 4
    File size : 24.2 GiB
    Duration : 1 h 58 min
    Overall bit rate mode : Variable
    Overall bit rate : 29.2 Mb/s
    Encoded date : UTC 2023-11-21 19:45:09
    Writing application : mkvmerge v78.0 ('Running') 64-bit
    Writing library : libebml v1.4.4 + libmatroska v1.7.1
    Attachments : poster.jpg

    Video
    ID : 1
    Format : VC-1
    Format profile : Advanced@L3
    Codec ID : V_MS/VFW/FOURCC / WVC1
    Codec ID/Hint : Microsoft
    Duration : 1 h 58 min
    Bit rate : 27.1 Mb/s
    Width : 1 920 pixels
    Height : 1 080 pixels
    Display aspect ratio : 16:9
    Frame rate mode : Constant
    Frame rate : 23.976 (24000/1001) FPS
    Color space : YUV
    Chroma subsampling : 4:2:0
    Bit depth : 8 bits
    Scan type : Progressive
    Compression mode : Lossy
    Bits/(Pixel*Frame) : 0.545
    Stream size : 22.5 GiB (93%)
    Default : Yes
    Forced : No

    Audio #1
    ID : 2
    Format : AC-3
    Format/Info : Audio Coding 3
    Commercial name : Dolby Digital
    Codec ID : A_AC3
    Duration : 1 h 58 min
    Bit rate mode : Constant
    Bit rate : 448 kb/s
    Channel(s) : 6 channels
    Channel layout : L R C LFE Ls Rs
    Sampling rate : 48.0 kHz
    Frame rate : 31.250 FPS (1536 SPF)
    Compression mode : Lossy
    Stream size : 381 MiB (2%)
    Title : DD 51
    Language : Thai
    Service kind : Complete Main
    Default : Yes
    Forced : No

    Audio #2
    ID : 3
    Format : MLP FBA
    Format/Info : Meridian Lossless Packing FBA
    Commercial name : Dolby TrueHD
    Codec ID : A_TRUEHD
    Duration : 1 h 58 min
    Bit rate mode : Variable
    Bit rate : 1 530 kb/s
    Maximum bit rate : 2 970 kb/s
    Channel(s) : 6 channels
    Channel layout : L R C LFE Ls Rs
    Sampling rate : 48.0 kHz
    Frame rate : 1 200.000 FPS (40 SPF)
    Compression mode : Lossless
    Stream size : 1.27 GiB (5%)
    Title : TrueHD 5.1
    Language : English
    Default : No
    Forced : No

    Text #1
    ID : 4
    Format : PGS
    Muxing mode : zlib
    Codec ID : S_HDMV/PGS
    Codec ID/Info : Picture based subtitle format used on BDs/HD-DVDs
    Duration : 1 h 50 min
    Bit rate : 31.4 kb/s
    Frame rate : 0.477 FPS
    Count of elements : 3178
    Stream size : 25.0 MiB (0%)
    Title : PGS
    Language : Thai
    Default : No
    Forced : No

    Text #2
    ID : 5
    Format : PGS
    Muxing mode : zlib
    Codec ID : S_HDMV/PGS
    Codec ID/Info : Picture based subtitle format used on BDs/HD-DVDs
    Duration : 1 h 50 min
    Bit rate : 32.5 kb/s
    Frame rate : 0.477 FPS
    Count of elements : 3178
    Stream size : 25.8 MiB (0%)
    Title : PGS
    Language : Thai
    Default : No
    Forced : No

    Text #3
    ID : 6
    Format : UTF-8
    Codec ID : S_TEXT/UTF8
    Codec ID/Info : UTF-8 Plain Text
    Duration : 1 h 50 min
    Bit rate : 141 b/s
    Frame rate : 0.239 FPS
    Count of elements : 1589
    Stream size : 115 KiB (0%)
    Title : SRT
    Language : Thai
    Default : No
    Forced : No

    Text #4
    ID : 7
    Format : PGS
    Muxing mode : zlib
    Codec ID : S_HDMV/PGS
    Codec ID/Info : Picture based subtitle format used on BDs/HD-DVDs
    Duration : 1 h 52 min
    Bit rate : 44.4 kb/s
    Frame rate : 0.476 FPS
    Count of elements : 3200
    Stream size : 35.6 MiB (0%)
    Title : PGS
    Language : English
    Default : No
    Forced : No






    American.History.X.1998.BDRemux.VC-1.1080p.mkv
    http://www.filecondo.com/dl.php?f=t299151R7dgW

    26.01 GB

  2. The Following 2 Users Say Thank You to Duckload.us For This Useful Post:

    scsyn (12-01-2023), Wesker_TOT (12-01-2023)

  3. #2
    Senior Member
    สมัครเมื่อ
    Dec 2013
    โพสต์
    6,002
    Thanks
    7,984
    Thanked 0 Times in 0 Posts
    ขอบคุณครับ...

+ ตอบกลับกระทู้

ข้อมูลกระทู้

Users Browsing this Thread

ในขณะนี้มี 1 ท่านดูกระทู้อยู่. (0 สมาชิกและ 1 ผู้เยี่ยมชม)

     

กฎการโพสต์ข้อความ

  • ท่าน ไม่สามารถ ตั้งกระทู้ใหม่ได้
  • ท่าน ไม่สามารถ ตอบกระทู้ได้
  • ท่าน ไม่สามารถ แนบไฟล์ได้
  • ท่าน ไม่สามารถ แก้ไขข้อความโพสต์ได้
  • BB code สถานะ เปิด
  • Smilies สถานะ เปิด
  • [IMG] สถานะ เปิด
  • HTML สถานะ ปิด