+ ตอบกลับกระทู้
สรุปผลการค้นหา 1 ถึง 2 จากทั้งหมด 2
  1. #1
    Administrators รูปส่วนตัว Duckload.us
    สมัครเมื่อ
    Dec 2010
    โพสต์
    151,798
    Thanks
    7
    Thanked 158,767 Times in 69,413 Posts

    Lightbulb [ฝรั่ง]-Future Man (2017) เกมเมอร์พิทักษ์โลก Season 1 [เสียง:ไทย AC-3 Monomax-อังกฤษ AAC][บรรยาย: ไทย PGS/SRT Monomax-อังกฤษ SRT]-WEB-DL.H.265.1080p. [From HD-TV]-[พากย์ไทย บรรยายไทย]




    เรื่องย่อ เกมเมอร์พิทักษ์โลก ปี 1
    'จอช ฟัตเตอร์แมน' (จอช ฮัทเชอร์สัน) ภารโรงหนุ่มที่มีชีวิตอีกด้านเป็นสุดยอดเกมเมอร์ผู้พ ิชิต Biotic Wars เกมต่อสู้ที่ยังไม่เคยมีใครเอาชนะได้ แต่แล้วตัวละครในเกมอย่าง 'ไทเกอร์' (เอไลซ่า คูป) และ 'วูลฟ์' (เดเร็ก วิลสัน) ก็โผล่ออกมาในโลกความเป็นจริงโดยบอกว่าตัวเองมาจากอน าคตในปี 2162 และต้องการให้จอชช่วยหยุดยั้งการล่มสลายของมนุษยชาติ


    Video
    ID : 1
    Format : HEVC
    Format/Info : High Efficiency Video Coding
    Format profile : Main 10@L4@Main
    Codec ID : V_MPEGH/ISO/HEVC
    Duration : 30 min 12 s
    Bit rate : 4 255 kb/s
    Width : 1 920 pixels
    Height : 816 pixels
    Display aspect ratio : 2.35:1
    Frame rate mode : Constant
    Frame rate : 23.976 (24000/1001) FPS
    Color space : YUV
    Chroma subsampling : 4:2:0
    Bit depth : 10 bits
    Bits/(Pixel*Frame) : 0.113
    Stream size : 919 MiB (85%)
    Writing library : x265 3.2+22-a8a2c4c37267:[Windows][GCC 9.2.0][64 bit] 10bit
    Encoding settings : cpuid=1111039 / frame-threads=4 / numa-pools=16 / wpp / no-pmode / no-pme / no-psnr / no-ssim / log-level=2 / input-csp=1 / input-res=1920x816 / interlace=0 / total-frames=43456 / level-idc=0 / high-tier=1 / uhd-bd=0 / ref=5 / no-allow-non-conformance / no-repeat-headers / annexb / no-aud / no-hrd / info / hash=0 / no-temporal-layers / open-gop / min-keyint=23 / keyint=250 / gop-lookahead=0 / bframes=8 / b-adapt=2 / b-pyramid / bframe-bias=0 / rc-lookahead=80 / lookahead-slices=4 / scenecut=40 / hist-scenecut=0 / radl=0 / no-splice / no-intra-refresh / ctu=64 / min-cu-size=8 / no-rect / no-amp / max-tu-size=32 / tu-inter-depth=1 / tu-intra-depth=1 / limit-tu=0 / rdoq-level=2 / dynamic-rd=0.00 / no-ssim-rd / signh-i-d-e / no-tskip / nr-intra=0 / nr-inter=0 / no-constrained-intra / no-strong-intra-smoothing / max-merge=3 / limit-refs=3 / limit-modes / me=3 / subme=5 / merange=57 / temporal-mvp / no-frame-dup / no-hme / weightp / no-weightb / no-analyze-src-pics / deblock=-3:-3 / no-sao / no-sao-non-deblock / rd=4 / selective-sao=0 / no-early-skip / rskip / no-fast-intra / no-tskip-fast / no-cu-lossless / no-b-intra / no-splitrd-skip / rdpenalty=0 / psy-rd=2.00 / psy-rdoq=1.00 / no-rd-refine / no-lossless / cbqpoffs=0 / crqpoffs=0 / rc=crf / crf=18.0 / qcomp=0.60 / qpstep=4 / stats-write=0 / stats-read=0 / ipratio=1.40 / pbratio=1.30 / aq-mode=3 / aq-strength=1.00 / cutree / zone-count=0 / no-strict-cbr / qg-size=32 / no-rc-grain / qpmax=69 / qpmin=0 / no-const-vbv / sar=0 / overscan=0 / videoformat=5 / range=0 / colorprim=2 / transfer=2 / colormatrix=2 / chromaloc=0 / display-window=0 / cll=0,0 / min-luma=0 / max-luma=1023 / log2-max-poc-lsb=8 / vui-timing-info / vui-hrd-info / slices=1 / no-opt-qp-pps / no-opt-ref-list-length-pps / no-multi-pass-opt-rps / scenecut-bias=0.05 / hist-threshold=0.01 / no-opt-cu-delta-qp / no-aq-motion / no-hdr / no-hdr-opt / no-dhdr10-opt / no-idr-recovery-sei / analysis-reuse-level=5 / scale-factor=0 / refine-intra=0 / refine-inter=0 / refine-mv=1 / refine-ctu-distortion=0 / no-limit-sao / ctu-info=0 / no-lowpass-dct / refine-analysis-type=0 / copy-pic=1 / max-ausize-factor=1.0 / no-dynamic-refine / no-single-sei / no-hevc-aq / no-svt / no-field / qp-adaptation-range=1.00 / no-scenecut-aware-qp
    Default : Yes
    Forced : No

    Audio #1
    ID : 2
    Format : AC-3
    Format/Info : Audio Coding 3
    Commercial name : Dolby Digital
    Codec ID : A_AC3
    Duration : 30 min 12 s
    Bit rate mode : Constant
    Bit rate : 320 kb/s
    Channel(s) : 2 channels
    Channel layout : L R
    Sampling rate : 48.0 kHz
    Frame rate : 31.250 FPS (1536 SPF)
    Compression mode : Lossy
    Stream size : 69.1 MiB (6%)
    Title : [Thai-AC-3]
    Language : Thai
    Service kind : Complete Main
    Default : Yes
    Forced : No

    Audio #2
    ID : 3
    Format : AAC LC
    Format/Info : Advanced Audio Codec Low Complexity
    Codec ID : A_AAC-2
    Duration : 30 min 12 s
    Bit rate : 408 kb/s
    Channel(s) : 6 channels
    Channel layout : C L R Ls Rs LFE
    Sampling rate : 48.0 kHz
    Frame rate : 46.875 FPS (1024 SPF)
    Compression mode : Lossy
    Delay relative to video : 20 ms
    Stream size : 88.1 MiB (8%)
    Title : [English-AAC]
    Language : English
    Default : No
    Forced : No

    Text #1
    ID : 4
    Format : PGS
    Muxing mode : zlib
    Codec ID : S_HDMV/PGS
    Codec ID/Info : Picture based subtitle format used on BDs/HD-DVDs
    Duration : 29 min 39 s
    Bit rate : 74.2 kb/s
    Count of elements : 1062
    Stream size : 15.7 MiB (1%)
    Title : [Thai PGS]
    Language : Thai
    Default : Yes
    Forced : No

    Text #2
    ID : 5
    Format : UTF-8
    Codec ID : S_TEXT/UTF8
    Codec ID/Info : UTF-8 Plain Text
    Duration : 29 min 39 s
    Bit rate : 178 b/s
    Count of elements : 531
    Stream size : 38.7 KiB (0%)
    Title : Thai SRT
    Language : Thai
    Default : No
    Forced : No

    Text #3
    ID : 6
    Format : UTF-8
    Codec ID : S_TEXT/UTF8
    Codec ID/Info : UTF-8 Plain Text
    Duration : 29 min 52 s
    Bit rate : 88 b/s
    Count of elements : 734
    Stream size : 19.3 KiB (0%)
    Title : English SRT
    Language : English
    Default : No
    Forced : No





    Future_Man_(2017)_เกมเมอร์พิทักษ์โลก_S01E13_A_Date _with_Destiny.1080p_Modified_By_mxn.mkv
    http://www.filecondo.com/dl.php?f=m0baae1R8lXi

    Future_Man_(2017)_เกมเมอร์พิทักษ์โลก_S01E12_Prelud e_to_an_Apocalypse.1080p_Modified_By_mxn.mkv
    http://www.filecondo.com/dl.php?f=1155501R8lWl

    Future_Man_(2017)_เกมเมอร์พิทักษ์โลก_S01E11_Beyond _the_TruffleDome.1080p_Modified_By_mxn.mkv
    http://www.filecondo.com/dl.php?f=m7d36e1R8lVn

    Future_Man_(2017)_เกมเมอร์พิทักษ์โลก_S01E10_Operat ion_Natal_Attraction.1080p_Modified_By_mxn.mkv
    http://www.filecondo.com/dl.php?f=r066121R8lUp

    Future_Man_(2017)_เกมเมอร์พิทักษ์โลก_S01E09_Operat ion_Fatal_Attraction.1080p_Modified_By_mxn.mkv
    http://www.filecondo.com/dl.php?f=D151e31R8lTr

    Future_Man_(2017)_เกมเมอร์พิทักษ์โลก_S01E08_Girth, _Wind_&_Fire.1080p_Modified_By_mxn.mkv
    http://www.filecondo.com/dl.php?f=d5af551R8lSt

    Future_Man_(2017)_เกมเมอร์พิทักษ์โลก_S01E07_Pandor a's_Mailbox.1080p_Modified_By_mxn.mkv
    http://www.filecondo.com/dl.php?f=sf9d2c1R8lRv

    Future_Man_(2017)_เกมเมอร์พิทักษ์โลก_S01E06_A_Blow job_Before_Dying.1080p_Modified_By_mxn.mkv
    http://www.filecondo.com/dl.php?f=H11e471R8lQx

    Future_Man_(2017)_เกมเมอร์พิทักษ์โลก_S01E05_Justic e_Desserts.1080p_Modified_By_mxn.mkv
    http://www.filecondo.com/dl.php?f=I522d71R8lPz

    Future_Man_(2017)_เกมเมอร์พิทักษ์โลก_S01E04_A_Fuel 's_Errand.1080p_Modified_By_mxn.mkv
    http://www.filecondo.com/dl.php?f=d0752c1R8lOB

    Future_Man_(2017)_เกมเมอร์พิทักษ์โลก_S01E03_A_Riph ole_in_Time.1080p_Modified_By_mxn_.mkv
    http://www.filecondo.com/dl.php?f=O18d971R8lND

    Future_Man_(2017)_เกมเมอร์พิทักษ์โลก_S01E02_Herpe_ Fully_Loaded.1080p_Modified_By_mxn_.mkv
    http://www.filecondo.com/dl.php?f=9ab8541R8lMG

    Future_Man_(2017)_เกมเมอร์พิทักษ์โลก_S01E01_Pilot. 1080p_Modified_By_mxn.mkv
    http://www.filecondo.com/dl.php?f=rf25dd1R8lLH

  2. The Following User Says Thank You to Duckload.us For This Useful Post:

    whiteherbie (04-08-2024)

  3. #2
    Senior Member
    สมัครเมื่อ
    Dec 2011
    โพสต์
    3,107
    Thanks
    677
    Thanked 0 Times in 0 Posts
    Thank you ka

+ ตอบกลับกระทู้

ข้อมูลกระทู้

Users Browsing this Thread

ในขณะนี้มี 1 ท่านดูกระทู้อยู่. (0 สมาชิกและ 1 ผู้เยี่ยมชม)

     

กฎการโพสต์ข้อความ

  • ท่าน ไม่สามารถ ตั้งกระทู้ใหม่ได้
  • ท่าน ไม่สามารถ ตอบกระทู้ได้
  • ท่าน ไม่สามารถ แนบไฟล์ได้
  • ท่าน ไม่สามารถ แก้ไขข้อความโพสต์ได้
  • BB code สถานะ เปิด
  • Smilies สถานะ เปิด
  • [IMG] สถานะ เปิด
  • HTML สถานะ ปิด