+ ตอบกลับกระทู้
สรุปผลการค้นหา 1 ถึง 2 จากทั้งหมด 2
  1. #1
    Administrators รูปส่วนตัว Duckload.us
    สมัครเมื่อ
    Dec 2010
    โพสต์
    151,798
    Thanks
    7
    Thanked 158,767 Times in 69,413 Posts

    Lightbulb [ฝรั่ง]-[AMZN] Star Trek Picard (2020) สตาร์ เทรค พิคาร์ด Season 1 [เสียง:อังกฤษ-ไทย AC-3 5.1][บรรยาย: ไทย PGS และ ไทย/อังกฤษ SRT]-WEB-DL.H.264.1080p. [From HD-TV]-[พากย์ไทย บรรยายไทย]




    สตาร์ เทรค: พิคาร์ด นำแสดงโดยเซอร์แพทริก สจ๊วตซึ่งกลับมารับบทเป็นฌอง-ลุค พิคาร์ด ที่เขาแสดงมาแล้วเจ็ดซีซั่นของสตาร์ เทรค: เดอะเน็กซ์เจเนอเรชัน ซีรีส์ใหม่นี้จะติดตามตัวละครเด่นนี้เข้าสู่บทถัดไปข องชีวิตเขา


    Video
    ID : 1
    Format : AVC
    Format/Info : Advanced Video Codec
    Format profile : High@L4
    Format settings : CABAC / 4 Ref Frames
    Format settings, CABAC : Yes
    Format settings, Reference fra : 4 frames
    Codec ID : V_MPEG4/ISO/AVC
    Duration : 46 min 5 s
    Bit rate mode : Constant
    Bit rate : 8 389 kb/s
    Nominal bit rate : 10 000 kb/s
    Width : 1 920 pixels
    Height : 1 080 pixels
    Display aspect ratio : 16:9
    Frame rate mode : Constant
    Frame rate : 23.976 (24000/1001) FPS
    Color space : YUV
    Chroma subsampling : 4:2:0
    Bit depth : 8 bits
    Scan type : Progressive
    Bits/(Pixel*Frame) : 0.169
    Stream size : 2.70 GiB (87%)
    Default : Yes
    Forced : No
    Color range : Limited
    Color primaries : BT.709
    Transfer characteristics : BT.709
    Matrix coefficients : BT.709

    Audio #1
    ID : 2
    Format : E-AC-3
    Format/Info : Enhanced AC-3
    Commercial name : Dolby Digital Plus
    Codec ID : A_EAC3
    Duration : 46 min 5 s
    Bit rate mode : Constant
    Bit rate : 640 kb/s
    Channel(s) : 6 channels
    Channel layout : L R C LFE Ls Rs
    Sampling rate : 48.0 kHz
    Frame rate : 31.250 FPS (1536 SPF)
    Compression mode : Lossy
    Stream size : 211 MiB (7%)
    Title : [Thai-AC-3 5.1]
    Language : Thai
    Service kind : Complete Main
    Default : Yes
    Forced : No

    Audio #2
    ID : 3
    Format : E-AC-3
    Format/Info : Enhanced AC-3
    Commercial name : Dolby Digital Plus
    Codec ID : A_EAC3
    Duration : 46 min 5 s
    Bit rate mode : Constant
    Bit rate : 640 kb/s
    Channel(s) : 6 channels
    Channel layout : L R C LFE Ls Rs
    Sampling rate : 48.0 kHz
    Frame rate : 31.250 FPS (1536 SPF)
    Compression mode : Lossy
    Stream size : 211 MiB (7%)
    Title : [English-AC-3 5.1]
    Language : English
    Service kind : Complete Main
    Default : No
    Forced : No

    Text #1
    ID : 4
    Format : PGS
    Muxing mode : zlib
    Codec ID : S_HDMV/PGS
    Codec ID/Info : Picture based subtitle format used on BDs/HD-DVDs
    Duration : 40 min 22 s
    Bit rate : 1 607 b/s
    Count of elements : 34
    Stream size : 475 KiB (0%)
    Title : [Thai AMZN Forced PGS]
    Language : Thai
    Default : Yes
    Forced : No

    Text #2
    ID : 5
    Format : PGS
    Muxing mode : zlib
    Codec ID : S_HDMV/PGS
    Codec ID/Info : Picture based subtitle format used on BDs/HD-DVDs
    Duration : 43 min 8 s
    Bit rate : 54.2 kb/s
    Count of elements : 1118
    Stream size : 16.7 MiB (0%)
    Title : [Thai AMZN PGS]
    Language : Thai
    Default : No
    Forced : No

    Text #3
    ID : 6
    Format : UTF-8
    Codec ID : S_TEXT/UTF8
    Codec ID/Info : UTF-8 Plain Text
    Duration : 40 min 22 s
    Bit rate : 3 b/s
    Count of elements : 17
    Stream size : 1.08 KiB (0%)
    Title : Thai Forced SRT
    Language : Thai
    Default : No
    Forced : No

    Text #4
    ID : 7
    Format : UTF-8
    Codec ID : S_TEXT/UTF8
    Codec ID/Info : UTF-8 Plain Text
    Duration : 43 min 8 s
    Bit rate : 130 b/s
    Count of elements : 559
    Stream size : 41.3 KiB (0%)
    Title : Thai SRT
    Language : Thai
    Default : No
    Forced : No

    Text #5
    ID : 8
    Format : UTF-8
    Codec ID : S_TEXT/UTF8
    Codec ID/Info : UTF-8 Plain Text
    Duration : 3 min 58 s
    Bit rate : 5 b/s
    Count of elements : 5
    Stream size : 156 Bytes (0%)
    Title : English Forced SRT
    Language : English
    Default : No
    Forced : No

    Text #6
    ID : 9
    Format : UTF-8
    Codec ID : S_TEXT/UTF8
    Codec ID/Info : UTF-8 Plain Text
    Duration : 42 min 25 s
    Bit rate : 57 b/s
    Count of elements : 592
    Stream size : 17.8 KiB (0%)
    Title : English SRT
    Language : English
    Default : No
    Forced : No

    Menu
    00:00:00.000 : en:1. Studio Logo
    00:00:06.000 : en:2. Keep the game from ending
    00:04:01.000 : en:3. Activating a new weapon
    00:06:55.000 : en:4. Opening Credits
    00:08:33.000 : en:5. An important interview
    00:16:38.000 : en:6. Dahj finds Picard
    00:22:06.000 : en:7. A clue hidden in a painting
    00:26:33.000 : en:8. Focus and find help
    00:28:08.000 : en:9. The truth Dahj
    00:33:49.000 : en:10. A visit to Okinawa Research Facility
    00:40:38.000 : en:11. Another sad story






    Star_Trek_Picard_(2020)_สตาร์_เทรค_พิคาร์ด_S01E10_ เอ็ตในอาร์คาเดียอีโก้_ตอนที่_2.1080p_Modified_By_m xn_.mkv
    http://www.filecondo.com/dl.php?f=o9ad421R8mze

    Star_Trek_Picard_(2020)_สตาร์_เทรค_พิคาร์ด_S01E09_ เอ็ตในอาร์คาเดียอีโก้_ตอนที่_1.1080p_Modified_By_m xn_.mkv
    http://www.filecondo.com/dl.php?f=i93a291R8myd

    Star_Trek_Picard_(2020)_สตาร์_เทรค_พิคาร์ด_S01E08_ แตกสลายเป็นเสี่ยงๆ.1080p_Modified_By_mxn_.mkv
    http://www.filecondo.com/dl.php?f=Jc84511R8mxh

    Star_Trek_Picard_(2020)_สตาร์_เทรค_พิคาร์ด_S01E07_ เนเพเธ.1080p_Modified_By_mxn_.mkv
    http://www.filecondo.com/dl.php?f=Ec4e6a1R8mwj

    Star_Trek_Picard_(2020)_สตาร์_เทรค_พิคาร์ด_S01E06_ กล่องที่เป็นไปไม่ได้.1080p_Modified_By_mxn.mkv
    http://www.filecondo.com/dl.php?f=Qef2531R8mvi

    Star_Trek_Picard_(2020)_สตาร์_เทรค_พิคาร์ด_S01E05_ สตาร์ดัสท์_ซิตี้_แร็ก.1080p_Modified_By_mxn.mkv
    http://www.filecondo.com/dl.php?f=wf234b1R8muk

    Star_Trek_Picard_(2020)_สตาร์_เทรค_พิคาร์ด_S01E04_ วิถีแห่งแคนดอร์.1080p_Modified_By_mxn.mkv
    http://www.filecondo.com/dl.php?f=qec02c1R8mtl

    Star_Trek_Picard_(2020)_สตาร์_เทรค_พิคาร์ด_S01E03_ อวสานคือจุดเริ่มต้น.1080p_Modified_By_mxn.mkv
    http://www.filecondo.com/dl.php?f=N19f641R8mso

    Star_Trek_Picard_(2020)_สตาร์_เทรค_พิคาร์ด_S01E02_ แผนที่และตำนาน.1080p_Modified_By_mxn_.mkv
    http://www.filecondo.com/dl.php?f=M932eb1R8mrp

    Star_Trek_Picard_(2020)_สตาร์_เทรค_พิคาร์ด_S01E01_ ความทรงจำ.1080p_Modified_By_mxn.mkv
    http://www.filecondo.com/dl.php?f=4992de1R8mqr

  2. The Following 3 Users Say Thank You to Duckload.us For This Useful Post:

    neorun (04-09-2024), scsyn (12-04-2023), whiteherbie (04-09-2024)

  3. #2
    Senior Member
    สมัครเมื่อ
    Dec 2011
    โพสต์
    3,107
    Thanks
    677
    Thanked 0 Times in 0 Posts
    Thank you ka

+ ตอบกลับกระทู้

ข้อมูลกระทู้

Users Browsing this Thread

ในขณะนี้มี 1 ท่านดูกระทู้อยู่. (0 สมาชิกและ 1 ผู้เยี่ยมชม)

     

กฎการโพสต์ข้อความ

  • ท่าน ไม่สามารถ ตั้งกระทู้ใหม่ได้
  • ท่าน ไม่สามารถ ตอบกระทู้ได้
  • ท่าน ไม่สามารถ แนบไฟล์ได้
  • ท่าน ไม่สามารถ แก้ไขข้อความโพสต์ได้
  • BB code สถานะ เปิด
  • Smilies สถานะ เปิด
  • [IMG] สถานะ เปิด
  • HTML สถานะ ปิด