+ ตอบกลับกระทู้
สรุปผลการค้นหา 1 ถึง 2 จากทั้งหมด 2
  1. #1
    Administrators รูปส่วนตัว Duckload.us
    สมัครเมื่อ
    Dec 2010
    โพสต์
    149,725
    Thanks
    7
    Thanked 156,688 Times in 68,430 Posts

    Lightbulb [ฝรั่ง]-Future Man (2019) เกมเมอร์พิทักษ์โลก Season 2 [เสียง:ไทย AC-3 Monomax-อังกฤษ AAC][บรรยาย: ไทย PGS/SRT Monomax-อังกฤษ SRT]-WEB-DL.H.265.1080p. [From HD-TV]-[พากย์ไทย บรรยายไทย]




    เรื่องย่อ เกมเมอร์พิทักษ์โลก ปี 2
    หลังจากที่ 'จอช' (จอช ฮัทเชอร์สัน) 'ไทเกอร์' (เอไลซ่า คูป) และ 'วูลฟ์' (เดเร็ก วิลสัน) เดินทางข้ามเวลาต่อสู้กับพวกไบโอติกจนทำให้เส้นเวลาเ ปลี่ยนแปลง จอช ถูกลักพาตัวไปทดลองโดยกลุ่มคนที่เรียกตัวเองว่า 'วงปลายแหลม' วูล์ฟ มีครอบครัวและอาศัยในดินแดนของโลกใหม่ที่เรียกว่าแน็ ก ส่วนไทเกอร์ได้พบกับ สตู คามิลโล (ฮาร์ลี่ย์ โจเอล ออสเมนต์) และไทแอน ร่างโคลนของตัวเอง ทั้งสามต้องร่วมมือกันตามหาเครื่องข้ามเวลา เพื่อที่จะแก้ไขให้เส้นเวลากลับไปเป็นเหมือนเดิม!


    Video
    ID : 1
    Format : HEVC
    Format/Info : High Efficiency Video Coding
    Format profile : Main 10@L4@Main
    Codec ID : V_MPEGH/ISO/HEVC
    Duration : 27 min 47 s
    Bit rate : 3 811 kb/s
    Width : 1 920 pixels
    Height : 816 pixels
    Display aspect ratio : 2.35:1
    Frame rate mode : Constant
    Frame rate : 23.976 (24000/1001) FPS
    Color space : YUV
    Chroma subsampling : 4:2:0
    Bit depth : 10 bits
    Bits/(Pixel*Frame) : 0.101
    Stream size : 757 MiB (82%)
    Writing library : x265 3.2+22-a8a2c4c37267:[Windows][GCC 9.2.0][64 bit] 10bit
    Encoding settings : cpuid=1111039 / frame-threads=4 / numa-pools=16 / wpp / no-pmode / no-pme / no-psnr / no-ssim / log-level=2 / input-csp=1 / input-res=1920x816 / interlace=0 / total-frames=39976 / level-idc=0 / high-tier=1 / uhd-bd=0 / ref=5 / no-allow-non-conformance / no-repeat-headers / annexb / no-aud / no-hrd / info / hash=0 / no-temporal-layers / open-gop / min-keyint=23 / keyint=250 / gop-lookahead=0 / bframes=8 / b-adapt=2 / b-pyramid / bframe-bias=0 / rc-lookahead=80 / lookahead-slices=4 / scenecut=40 / hist-scenecut=0 / radl=0 / no-splice / no-intra-refresh / ctu=64 / min-cu-size=8 / no-rect / no-amp / max-tu-size=32 / tu-inter-depth=1 / tu-intra-depth=1 / limit-tu=0 / rdoq-level=2 / dynamic-rd=0.00 / no-ssim-rd / signh-i-d-e / no-tskip / nr-intra=0 / nr-inter=0 / no-constrained-intra / no-strong-intra-smoothing / max-merge=3 / limit-refs=3 / limit-modes / me=3 / subme=5 / merange=57 / temporal-mvp / no-frame-dup / no-hme / weightp / no-weightb / no-analyze-src-pics / deblock=-3:-3 / no-sao / no-sao-non-deblock / rd=4 / selective-sao=0 / no-early-skip / rskip / no-fast-intra / no-tskip-fast / no-cu-lossless / no-b-intra / no-splitrd-skip / rdpenalty=0 / psy-rd=2.00 / psy-rdoq=1.00 / no-rd-refine / no-lossless / cbqpoffs=0 / crqpoffs=0 / rc=crf / crf=18.0 / qcomp=0.60 / qpstep=4 / stats-write=0 / stats-read=0 / ipratio=1.40 / pbratio=1.30 / aq-mode=3 / aq-strength=1.00 / cutree / zone-count=0 / no-strict-cbr / qg-size=32 / no-rc-grain / qpmax=69 / qpmin=0 / no-const-vbv / sar=0 / overscan=0 / videoformat=5 / range=0 / colorprim=2 / transfer=2 / colormatrix=2 / chromaloc=0 / display-window=0 / cll=0,0 / min-luma=0 / max-luma=1023 / log2-max-poc-lsb=8 / vui-timing-info / vui-hrd-info / slices=1 / no-opt-qp-pps / no-opt-ref-list-length-pps / no-multi-pass-opt-rps / scenecut-bias=0.05 / hist-threshold=0.01 / no-opt-cu-delta-qp / no-aq-motion / no-hdr / no-hdr-opt / no-dhdr10-opt / no-idr-recovery-sei / analysis-reuse-level=5 / scale-factor=0 / refine-intra=0 / refine-inter=0 / refine-mv=1 / refine-ctu-distortion=0 / no-limit-sao / ctu-info=0 / no-lowpass-dct / refine-analysis-type=0 / copy-pic=1 / max-ausize-factor=1.0 / no-dynamic-refine / no-single-sei / no-hevc-aq / no-svt / no-field / qp-adaptation-range=1.00 / no-scenecut-aware-qp
    Default : Yes
    Forced : No

    Audio #1
    ID : 2
    Format : AC-3
    Format/Info : Audio Coding 3
    Commercial name : Dolby Digital
    Codec ID : A_AC3
    Duration : 27 min 43 s
    Bit rate mode : Constant
    Bit rate : 320 kb/s
    Channel(s) : 2 channels
    Channel layout : L R
    Sampling rate : 48.0 kHz
    Frame rate : 31.250 FPS (1536 SPF)
    Compression mode : Lossy
    Stream size : 63.5 MiB (7%)
    Title : [Thai-AC-3]
    Language : Thai
    Service kind : Complete Main
    Default : Yes
    Forced : No

    Audio #2
    ID : 3
    Format : AAC LC
    Format/Info : Advanced Audio Codec Low Complexity
    Codec ID : A_AAC-2
    Duration : 27 min 44 s
    Bit rate : 509 kb/s
    Channel(s) : 6 channels
    Channel layout : C L R Ls Rs LFE
    Sampling rate : 48.0 kHz
    Frame rate : 46.875 FPS (1024 SPF)
    Compression mode : Lossy
    Delay relative to video : 20 ms
    Stream size : 101 MiB (11%)
    Title : [English-AAC]
    Language : English
    Default : No
    Forced : No

    Text #1
    ID : 4
    Format : PGS
    Muxing mode : zlib
    Codec ID : S_HDMV/PGS
    Codec ID/Info : Picture based subtitle format used on BDs/HD-DVDs
    Duration : 27 min 27 s
    Bit rate : 69.7 kb/s
    Count of elements : 894
    Stream size : 13.7 MiB (1%)
    Title : [Thai PGS]
    Language : Thai
    Default : Yes
    Forced : No

    Text #2
    ID : 5
    Format : UTF-8
    Codec ID : S_TEXT/UTF8
    Codec ID/Info : UTF-8 Plain Text
    Duration : 27 min 27 s
    Bit rate : 169 b/s
    Count of elements : 447
    Stream size : 34.2 KiB (0%)
    Title : Thai SRT
    Language : Thai
    Default : No
    Forced : No

    Text #3
    ID : 6
    Format : UTF-8
    Codec ID : S_TEXT/UTF8
    Codec ID/Info : UTF-8 Plain Text
    Duration : 26 min 49 s
    Bit rate : 87 b/s
    Count of elements : 541
    Stream size : 17.3 KiB (0%)
    Title : English SRT
    Language : English
    Default : No
    Forced : No





    Future_Man_(2019)_เกมเมอร์พิทักษ์โลก_S02E13_Ultra-Max.1080p_Modified_By_mxn.mkv
    http://www.filecondo.com/dl.php?f=Ab87c11Ra5Ms

    Future_Man_(2019)_เกมเมอร์พิทักษ์โลก_S02E12_The_Br ain_Job.1080p_Modified_By_mxn.mkv
    http://www.filecondo.com/dl.php?f=d2befb1Ra5Lv

    Future_Man_(2019)_เกมเมอร์พิทักษ์โลก_S02E11_Dia_De _Los_Robots.1080p_Modified_By_mxn.mkv
    http://www.filecondo.com/dl.php?f=s1ecae1Ra5Kx

    Future_Man_(2019)_เกมเมอร์พิทักษ์โลก_S02E10_Exes_a nd_OS.1080p_Modified_By_mxn.mkv
    http://www.filecondo.com/dl.php?f=Z189aa1Ra5Jz

    Future_Man_(2019)_เกมเมอร์พิทักษ์โลก_S02E09_The_Ba llad_of_PUP-E_Q._Barkington.1080p_Modified_By_mxn.mkv
    http://www.filecondo.com/dl.php?f=kcba421Ra5IA

    Future_Man_(2019)_เกมเมอร์พิทักษ์โลก_S02E08_The_La st_Horchata.1080p_Modified_By_mxn.mkv
    http://www.filecondo.com/dl.php?f=c3be8e1Ra5HD

    Future_Man_(2019)_เกมเมอร์พิทักษ์โลก_S02E07_Homici de_Life_in_the_Mons.1080p_Modified_By_mxn.mkv
    http://www.filecondo.com/dl.php?f=Z4b0961Ra5GD

    Future_Man_(2019)_เกมเมอร์พิทักษ์โลก_S02E06_The_Bi nx_Ultimatum.1080p_Modified_By_mxn.mkv
    http://www.filecondo.com/dl.php?f=73fe111Ra5FG

    Future_Man_(2019)_เกมเมอร์พิทักษ์โลก_S02E05_J1_Jud gment_Day.1080p_Modified_By_mxn.mkv
    http://www.filecondo.com/dl.php?f=B7a8e11Ra5EJ

    Future_Man_(2019)_เกมเมอร์พิทักษ์โลก_S02E04_Guess_ Who's_Coming_to_Lunch.1080p_Modified_By_mxn.mkv
    http://www.filecondo.com/dl.php?f=5101d61Ra5DN

    Future_Man_(2019)_เกมเมอร์พิทักษ์โลก_S02E03_A_Wolf _in_the_Torque_House.1080p_Modified_By_mxn.mkv
    http://www.filecondo.com/dl.php?f=z961ba1Ra5CN

    Future_Man_(2019)_เกมเมอร์พิทักษ์โลก_S02E02_The_I_ of_the_Tiger.1080p_Modified_By_mxn.mkv
    http://www.filecondo.com/dl.php?f=x8ea741Ra5BO

    Future_Man_(2019)_เกมเมอร์พิทักษ์โลก_S02E01_Countd own_to_a_Prologue.1080p_Modified_By_mxn.mkv
    http://www.filecondo.com/dl.php?f=k038fa1Ra5AQ

  2. The Following 2 Users Say Thank You to Duckload.us For This Useful Post:

    scsyn (12-07-2023), Wesker_TOT (12-07-2023)

  3. #2
    Senior Member
    สมัครเมื่อ
    Dec 2013
    โพสต์
    5,986
    Thanks
    7,968
    Thanked 0 Times in 0 Posts
    ขอบคุณครับ...

+ ตอบกลับกระทู้

ข้อมูลกระทู้

Users Browsing this Thread

ในขณะนี้มี 1 ท่านดูกระทู้อยู่. (0 สมาชิกและ 1 ผู้เยี่ยมชม)

     

กฎการโพสต์ข้อความ

  • ท่าน ไม่สามารถ ตั้งกระทู้ใหม่ได้
  • ท่าน ไม่สามารถ ตอบกระทู้ได้
  • ท่าน ไม่สามารถ แนบไฟล์ได้
  • ท่าน ไม่สามารถ แก้ไขข้อความโพสต์ได้
  • BB code สถานะ เปิด
  • Smilies สถานะ เปิด
  • [IMG] สถานะ เปิด
  • HTML สถานะ ปิด