+ ตอบกลับกระทู้
สรุปผลการค้นหา 1 ถึง 3 จากทั้งหมด 3
  1. #1
    Administrators รูปส่วนตัว Duckload.us
    สมัครเมื่อ
    Dec 2010
    โพสต์
    149,725
    Thanks
    7
    Thanked 156,688 Times in 68,430 Posts

    Lightbulb [ฝรั่ง]-Knock at the Cabin (2023) เสียงเคาะที่กระท่อม [เสียง:ไทย 2.0-อังกฤษ 7.1/5.1][บรรยาย: ไทย-อังกฤษ PGS/SRT]-Blu-ray.H.264.1080p. [Modified]-[พากย์ไทย บรรยายไทย]




    เรื่องราวของคู่รักสามีคู่หนึ่งกับลูกสาวของเขา ได้ออกเดินทางไปพักร้อนที่กระท่อมกลางป่าอันเงียบสงบ แต่ปรากฏว่าพวกเขาต้องเผชิญหน้ากับคนแปลกหน้า 4 คน ที่มาเคาะประตูเรียก ได้กลายเป็นสถานการณ์จับตัวประกัน พร้อมกดดันให้ครอบครัวนี้ต้องเลือกในสิ่งที่ไม่น่าจะ เป็นไปได้


    Video
    ID : 1
    Format : AVC
    Format/Info : Advanced Video Codec
    Format profile : [email protected]
    Format settings : CABAC / 4 Ref Frames
    Format settings, CABAC : Yes
    Format settings, Reference fra : 4 frames
    Codec ID : V_MPEG4/ISO/AVC
    Duration : 1 h 40 min
    Bit rate : 7 000 kb/s
    Width : 1 920 pixels
    Height : 804 pixels
    Display aspect ratio : 2.40:1
    Frame rate mode : Constant
    Frame rate : 23.976 (24000/1001) FPS
    Color space : YUV
    Chroma subsampling : 4:2:0
    Bit depth : 8 bits
    Scan type : Progressive
    Bits/(Pixel*Frame) : 0.189
    Stream size : 4.89 GiB (45%)
    Writing library : x264 core 142 r2479 dd79a61
    Encoding settings : cabac=1 / ref=4 / deblock=1:-3:-3 / analyse=0x3:0x113 / me=umh / subme=9 / psy=1 / psy_rd=1.00:0.00 / mixed_ref=1 / me_range=16 / chroma_me=1 / trellis=1 / 8x8dct=1 / cqm=0 / deadzone=21,11 / fast_pskip=1 / chroma_qp_offset=-2 / threads=6 / lookahead_threads=1 / sliced_threads=0 / nr=0 / decimate=1 / interlaced=0 / bluray_compat=0 / constrained_intra=0 / bframes=3 / b_pyramid=2 / b_adapt=2 / b_bias=0 / direct=3 / weightb=1 / open_gop=0 / weightp=2 / keyint=240 / keyint_min=24 / scenecut=40 / intra_refresh=0 / rc_lookahead=40 / rc=2pass / mbtree=1 / bitrate=7000 / ratetol=1.0 / qcomp=0.60 / qpmin=0 / qpmax=69 / qpstep=4 / cplxblur=20.0 / qblur=0.5 / vbv_maxrate=62500 / vbv_bufsize=78125 / nal_hrd=none / filler=0 / ip_ratio=1.40 / aq=1:1.00
    Language : English
    Default : Yes
    Forced : No
    Color range : Limited
    Color primaries : BT.709
    Transfer characteristics : BT.709
    Matrix coefficients : BT.709

    Audio #1
    ID : 2
    Format : DTS XLL
    Format/Info : Digital Theater Systems
    Commercial name : DTS-HD Master Audio
    Codec ID : A_DTS
    Duration : 1 h 40 min
    Bit rate mode : Variable
    Bit rate : 4 328 kb/s
    Channel(s) : 8 channels
    Channel layout : C L R LFE Lb Rb Lss Rss
    Sampling rate : 48.0 kHz
    Frame rate : 93.750 FPS (512 SPF)
    Bit depth : 24 bits
    Compression mode : Lossless
    Delay relative to video : -83 ms
    Stream size : 3.03 GiB (28%)
    Title : English DTS-HD MA 7.1 @ 4328 Kbps - Original
    Language : English
    Default : No
    Forced : No

    Audio #2
    ID : 3
    Format : MLP FBA 16-ch
    Format/Info : Meridian Lossless Packing FBA with 16-channel presentation
    Commercial name : Dolby TrueHD with Dolby Atmos
    Codec ID : A_TRUEHD
    Duration : 1 h 40 min
    Bit rate mode : Variable
    Bit rate : 3 071 kb/s
    Maximum bit rate : 5 148 kb/s
    Channel(s) : 8 channels
    Channel layout : L R C LFE Ls Rs Lb Rb
    Sampling rate : 48.0 kHz
    Frame rate : 1 200.000 FPS (40 SPF)
    Bit depth : 24 bits
    Compression mode : Lossless
    Delay relative to video : -83 ms
    Stream size : 2.15 GiB (20%)
    Title : English TrueHD 7.1 Atmos @ 3071 Kbps - Original
    Language : English
    Default : No
    Forced : No
    Number of dynamic objects : 11
    Bed channel count : 1 channel
    Bed channel configuration : LFE

    Audio #3
    ID : 4
    Format : AC-3
    Format/Info : Audio Coding 3
    Commercial name : Dolby Digital
    Codec ID : A_AC3
    Duration : 1 h 40 min
    Bit rate mode : Constant
    Bit rate : 640 kb/s
    Channel(s) : 6 channels
    Channel layout : L R C LFE Ls Rs
    Sampling rate : 48.0 kHz
    Frame rate : 31.250 FPS (1536 SPF)
    Compression mode : Lossy
    Delay relative to video : -5 ms
    Stream size : 458 MiB (4%)
    Title : English AC3 5.1 @ 640 Kbps - Original
    Language : English
    Service kind : Complete Main
    Default : No
    Forced : No

    Audio #4
    ID : 5
    Format : AC-3
    Format/Info : Audio Coding 3
    Commercial name : Dolby Digital
    Codec ID : A_AC3
    Duration : 1 h 40 min
    Bit rate mode : Constant
    Bit rate : 320 kb/s
    Channel(s) : 2 channels
    Channel layout : L R
    Sampling rate : 48.0 kHz
    Frame rate : 31.250 FPS (1536 SPF)
    Compression mode : Lossy
    Delay relative to video : -83 ms
    Stream size : 229 MiB (2%)
    Title : Thai AC-3
    Language : Thai
    Service kind : Complete Main
    Default : Yes
    Forced : No

    Text #1
    ID : 6
    Format : PGS
    Muxing mode : zlib
    Codec ID : S_HDMV/PGS
    Codec ID/Info : Picture based subtitle format used on BDs/HD-DVDs
    Duration : 1 h 30 min
    Bit rate : 51.5 kb/s
    Count of elements : 2622
    Stream size : 33.5 MiB (0%)
    Title : Thai PGS
    Language : Thai
    Default : Yes
    Forced : No

    Text #2
    ID : 7
    Format : PGS
    Muxing mode : zlib
    Codec ID : S_HDMV/PGS
    Codec ID/Info : Picture based subtitle format used on BDs/HD-DVDs
    Duration : 1 h 38 min
    Bit rate : 46.5 kb/s
    Count of elements : 2922
    Stream size : 32.6 MiB (0%)
    Title : English PGS
    Language : English
    Default : No
    Forced : No

    Text #3
    ID : 8
    Format : UTF-8
    Codec ID : S_TEXT/UTF8
    Codec ID/Info : UTF-8 Plain Text
    Duration : 1 h 30 min
    Bit rate : 123 b/s
    Count of elements : 1311
    Stream size : 82.3 KiB (0%)
    Title : SRT
    Language : Thai
    Default : No
    Forced : No

    Text #4
    ID : 9
    Format : UTF-8
    Codec ID : S_TEXT/UTF8
    Codec ID/Info : UTF-8 Plain Text
    Duration : 1 h 30 min
    Bit rate : 62 b/s
    Count of elements : 1206
    Stream size : 41.4 KiB (0%)
    Title : SRT
    Language : English
    Default : No
    Forced : No

    Text #5
    ID : 10
    Format : UTF-8
    Codec ID : S_TEXT/UTF8
    Codec ID/Info : UTF-8 Plain Text
    Duration : 1 h 38 min
    Bit rate : 66 b/s
    Count of elements : 1456
    Stream size : 47.9 KiB (0%)
    Title : SDH
    Language : English
    Default : No
    Forced : No

    Menu
    00:00:00.000 : en:Chapter 01
    00:03:33.463 : en:Chapter 02
    00:09:30.570 : en:Chapter 03
    00:14:09.890 : en:Chapter 04
    00:18:39.993 : en:Chapter 05
    00:25:54.553 : en:Chapter 06
    00:29:51.498 : en:Chapter 07
    00:35:56.112 : en:Chapter 08
    00:39:40.086 : en:Chapter 09
    00:45:17.131 : en:Chapter 10
    00:50:41.872 : en:Chapter 11
    00:54:15.669 : en:Chapter 12
    01:00:05.893 : en:Chapter 13
    01:04:27.321 : en:Chapter 14
    01:10:33.229 : en:Chapter 15
    01:15:25.562 : en:Chapter 16
    01:19:29.014 : en:Chapter 17
    01:22:34.324 : en:Chapter 18
    01:28:50.074 : en:Chapter 19
    01:33:22.930 : en:Chapter 20





    Knock_at_the_Cabin_2023_BluRay_1080p_DTS-HD_MA_TrueHD_7.1.Modified_By_mxn.mkv
    http://www.filecondo.com/dl.php?f=of3fc31Ra8QD

    11.62 GB

  2. The Following User Says Thank You to Duckload.us For This Useful Post:

    Wesker_TOT (12-09-2023)

  3. #2
    Senior Member
    สมัครเมื่อ
    Dec 2013
    โพสต์
    5,986
    Thanks
    7,968
    Thanked 0 Times in 0 Posts
    ขอบคุณครับ...

  4. #3
    Senior Member
    สมัครเมื่อ
    Jul 2012
    โพสต์
    8,588
    Thanks
    0
    Thanked 0 Times in 0 Posts
    ขอบคุณมากจ้า

+ ตอบกลับกระทู้

ข้อมูลกระทู้

Users Browsing this Thread

ในขณะนี้มี 1 ท่านดูกระทู้อยู่. (0 สมาชิกและ 1 ผู้เยี่ยมชม)

     

กฎการโพสต์ข้อความ

  • ท่าน ไม่สามารถ ตั้งกระทู้ใหม่ได้
  • ท่าน ไม่สามารถ ตอบกระทู้ได้
  • ท่าน ไม่สามารถ แนบไฟล์ได้
  • ท่าน ไม่สามารถ แก้ไขข้อความโพสต์ได้
  • BB code สถานะ เปิด
  • Smilies สถานะ เปิด
  • [IMG] สถานะ เปิด
  • HTML สถานะ ปิด