เรื่องราวความรักของสัจจเทพ หยวนฉี่ (หวังอันอวี่) กับหงส์เพลิงเกิดใหม่ เฟิ่งอิ่น (จ้าวลู่ซือ) ที่ในอดีตเมื่อหนึ่งพันปีก่อน กู่จิ้น (หวังอันอวี่) ทายาทของเทพสูงสุดตี้เจวี้ยน ที่พลังเทพถูกผนึกไว้ หลังบิดาจากไปถูกท่านแม่นำมาฝากเป็นศิษย์แห่งเขาต้าเ จ๋อ นิสัยเกียจคร้านไม่เอาไหน ไม่สนใจการงาน เป็นหนุ่มเสเพลชอบดื่มสุรา เมื่อได้มีโอกาสไปร่วมงานฉลองการเกิดใหม่ของหงส์เพลิ ง เฟิ่งอิ่น (จ้าวลู่ซือ) ก็ถูกหัวซู (เฉาเฝ่ยหรัน) องค์หญิงเผ่านกยูงหลอกใช้ให้ไปเอาหยกหงส์เพลิงมาให้ จนทำให้ปฐมจิตเซียนของเฟิ่งอิ่นสลายหายไป เพื่อไถ่โทษความผิดครั้งนี้ กู่จิ้นถูกลงโทษกักบริเวณ ผ่านไปสิบปีเขาบังเอิญได้พบกับไข่ของภูตวารี ที่สูญพันธ์ไปหลายหมื่นปี เฝ้าฟูมฝักหวังจะใช้ไข่มุกวิญญาณของมันที่สามารถเพิ่ มพลังเซียน ทำเป็นของขวัญให้คนที่หมายปอง แต่เมื่อไข่ฝักตัวออกมา กลายเป็นภูติวารีสาวสวย อาอิน (จ้าวลู่ซือ) นางโกรธแค้นกู่จิ้นกับวิธีการเลี้ยงดูของเขา จึงหาเรื่องทะเลาะ จนอาจารย์แห่งเขาต้าเจ๋อ ผูกพันธะสัญญานายบ่าวให้กับทุ้งคู่ จนไม่สามารถทำร้ายกันได้อีก บ่าวต้องเชื่อฟังและคอยอยู่ใกล้ๆ นาย เพื่อยกเลิกสัญญานายบ่ายนี้ อาอินต้องช่วยกู่จิ้นรวบรวมปฐมจิตเซียนของหงส์เพลิง ระหว่างการปฎิบัติภารกิจพวกเขาได้พบกับหงอี้ (หลี่อวิ๋นรุ่ย) จิ้งจอกเก้าหางหลานชายของราชินีเผ่าจิ้งจอก และเยี่ยนส่วง (เจียไน่น่า) องค์หญิงธิดาแห่งราชาอินทรี ทั้งสี่รวมกันผจญภัย เวียนว่ายผ่านนิพพาน เพื่อปกป้องรักษาใต้หล้าให้สงบสุข สุดท้ายแล้วชีวิตแต่ละคนจะลงเอยอย่างไร ติดตามได้ใน The Last Immortal (2023) ตํานานรักผนึกสวรรค์

Format : Matroska
Format version : Version 4
File size : 1.49 GiB
Duration : 45 min 11 s
Overall bit rate : 4 726 kb/s
Frame rate : 25.000 FPS
Movie name : The.Last.Immortal.2023.S01E01.2160p.WeTV.WEB-DL.DDP2.0.x265_SkiesIT
Encoded date : 2024-01-23 18:51:36 UTC
Writing application : mkvmerge v82.0 ('I'm The President') 64-bit
Writing library : libebml v1.4.5 + libmatroska v1.7.1

Video
ID : 1
Format : HEVC
Format/Info : High Efficiency Video Coding
Format profile : Main@L5@Main
Codec ID : V_MPEGH/ISO/HEVC
Duration : 45 min 11 s
Bit rate : 4 155 kb/s
Width : 3 840 pixels
Height : 2 160 pixels
Display aspect ratio : 16:9
Frame rate mode : Constant
Frame rate : 25.000 FPS
Color space : YUV
Chroma subsampling : 4:2:0
Bit depth : 8 bits
Bits/(Pixel*Frame) : 0.020
Stream size : 1.31 GiB (88%)
Title : The.Last.Immortal.2023.S01E01.2160p.WeTV.WEB-DL.DDP2.0.x265_SkiesIT
Language : Chinese
Default : Yes
Forced : No
Color range : Limited

Audio #1
ID : 2
Format : AAC LC
Format/Info : Advanced Audio Codec Low Complexity
Codec ID : A_AAC-2
Duration : 45 min 11 s
Bit rate : 192 kb/s
Channel(s) : 2 channels
Channel layout : L R
Sampling rate : 48.0 kHz
Frame rate : 46.875 FPS (1024 SPF)
Compression mode : Lossy
Stream size : 61.2 MiB (4%)
Language : Thai
Default : Yes
Forced : No

Audio #2
ID : 3
Format : AAC LC
Format/Info : Advanced Audio Codec Low Complexity
Codec ID : A_AAC-2
Duration : 45 min 11 s
Bit rate : 192 kb/s
Channel(s) : 2 channels
Channel layout : L R
Sampling rate : 44.1 kHz
Frame rate : 43.066 FPS (1024 SPF)
Compression mode : Lossy
Stream size : 61.3 MiB (4%)
Language : Chinese
Default : No
Forced : No

Audio #3
ID : 4
Format : E-AC-3
Format/Info : Enhanced AC-3
Commercial name : Dolby Digital Plus
Codec ID : A_EAC3
Duration : 45 min 11 s
Bit rate mode : Constant
Bit rate : 96.0 kb/s
Channel(s) : 2 channels
Channel layout : L R
Sampling rate : 48.0 kHz
Frame rate : 31.250 FPS (1536 SPF)
Compression mode : Lossy
Stream size : 31.0 MiB (2%)
Language : Chinese
Service kind : Complete Main
Default : No
Forced : No

Text #1
ID : 5
Format : UTF-8
Codec ID : S_TEXT/UTF8
Codec ID/Info : UTF-8 Plain Text
Duration : 40 min 59 s
Bit rate : 46 b/s
Frame rate : 0.335 FPS
Count of elements : 823
Stream size : 13.9 KiB (0%)
Title : (Simplified)
Language : Chinese (Simplified)
Default : No
Forced : No

Text #2
ID : 6
Format : UTF-8
Codec ID : S_TEXT/UTF8
Codec ID/Info : UTF-8 Plain Text
Duration : 40 min 59 s
Bit rate : 46 b/s
Frame rate : 0.335 FPS
Count of elements : 823
Stream size : 13.9 KiB (0%)
Title : (Traditional)
Language : Chinese (Traditional)
Default : No
Forced : No

Text #3
ID : 7
Format : UTF-8
Codec ID : S_TEXT/UTF8
Codec ID/Info : UTF-8 Plain Text
Duration : 44 min 47 s
Bit rate : 61 b/s
Frame rate : 0.323 FPS
Count of elements : 868
Stream size : 20.2 KiB (0%)
Title : English
Language : English
Default : No
Forced : No

Text #4
ID : 8
Format : UTF-8
Codec ID : S_TEXT/UTF8
Codec ID/Info : UTF-8 Plain Text
Duration : 44 min 48 s
Bit rate : 175 b/s
Frame rate : 0.306 FPS
Count of elements : 822
Stream size : 57.5 KiB (0%)
Title : SRT From WeTV
Language : Thai
Default : No
Forced : No

Text #5
ID : 9
Format : ASS
Codec ID : S_TEXT/ASS
Codec ID/Info : Advanced Sub Station Alpha
Duration : 44 min 48 s
Bit rate : 235 b/s
Frame rate : 0.306 FPS
Count of elements : 822
Compression mode : Lossless
Stream size : 77.4 KiB (0%)
Title : ASS From WeTV
Language : Thai
Default : Yes
Forced : No

Text #6
ID : 10
Format : ASS
Codec ID : S_TEXT/ASS
Codec ID/Info : Advanced Sub Station Alpha
Duration : 44 min 48 s
Bit rate : 257 b/s
Frame rate : 0.306 FPS
Count of elements : 822
Compression mode : Lossless
Stream size : 84.7 KiB (0%)
Title : ASS From WeTV [Yellow]
Language : Thai
Default : No
Forced : No

Text #7
ID : 11
Format : PGS
Muxing mode : zlib
Codec ID : S_HDMV/PGS
Codec ID/Info : Picture based subtitle format used on BDs/HD-DVDs
Duration : 44 min 48 s
Bit rate : 51.5 kb/s
Frame rate : 0.612 FPS
Count of elements : 1644
Stream size : 16.5 MiB (1%)
Title : Cordia New PGS
Language : Thai
Default : No
Forced : No

Text #8
ID : 12
Format : PGS
Muxing mode : zlib
Codec ID : S_HDMV/PGS
Codec ID/Info : Picture based subtitle format used on BDs/HD-DVDs
Duration : 44 min 48 s
Bit rate : 51.8 kb/s
Frame rate : 0.612 FPS
Count of elements : 1644
Stream size : 16.6 MiB (1%)
Title : Cordia New PGS [Yellow]
Language : Thai
Default : No
Forced : No

Text #9
ID : 13
Format : PGS
Muxing mode : zlib
Codec ID : S_HDMV/PGS
Codec ID/Info : Picture based subtitle format used on BDs/HD-DVDs
Duration : 44 min 48 s
Bit rate : 49.4 kb/s
Frame rate : 0.612 FPS
Count of elements : 1644
Stream size : 15.8 MiB (1%)
Title : Droid Sans PGS
Language : Thai
Default : No
Forced : No

Text #10
ID : 14
Format : PGS
Muxing mode : zlib
Codec ID : S_HDMV/PGS
Codec ID/Info : Picture based subtitle format used on BDs/HD-DVDs
Duration : 44 min 48 s
Bit rate : 49.6 kb/s
Frame rate : 0.612 FPS
Count of elements : 1644
Stream size : 15.9 MiB (1%)
Title : Droid Sans PGS [Yellow]
Language : Thai
Default : No
Forced : No

The.Last.Immortal.2023.S01E40.2160p.WeTV.WEB-DL.DDP2.0.x265_SkiesIT.mkv
http://www.filecondo.com/dl.php?f=y688091RyGmG

The.Last.Immortal.2023.S01E39.2160p.WeTV.WEB-DL.DDP2.0.x265_SkiesIT.mkv
http://www.filecondo.com/dl.php?f=we06cd1RyGlI

The.Last.Immortal.2023.S01E38.2160p.WeTV.WEB-DL.DDP2.0.x265_SkiesIT.mkv
http://www.filecondo.com/dl.php?f=Zdb4241RyGkJ

The.Last.Immortal.2023.S01E37.2160p.WeTV.WEB-DL.DDP2.0.x265_SkiesIT.mkv
http://www.filecondo.com/dl.php?f=yf98ed1RyGjL

The.Last.Immortal.2023.S01E36.2160p.WeTV.WEB-DL.DDP2.0.x265_SkiesIT.mkv
http://www.filecondo.com/dl.php?f=hcb7a91RyGiO

The.Last.Immortal.2023.S01E35.2160p.WeTV.WEB-DL.DDP2.0.x265_SkiesIT.mkv
http://www.filecondo.com/dl.php?f=8786ba1RyGhQ

The.Last.Immortal.2023.S01E34.2160p.WeTV.WEB-DL.DDP2.0.x265_SkiesIT.mkv
http://www.filecondo.com/dl.php?f=jed7c61RyGgR

The.Last.Immortal.2023.S01E33.2160p.WeTV.WEB-DL.DDP2.0.x265_SkiesIT.mkv
http://www.filecondo.com/dl.php?f=f553601RyGfT

The.Last.Immortal.2023.S01E32.2160p.WeTV.WEB-DL.DDP2.0.x265_SkiesIT.mkv
http://www.filecondo.com/dl.php?f=e6123b1RyGeW

The.Last.Immortal.2023.S01E31.2160p.WeTV.WEB-DL.DDP2.0.x265_SkiesIT.mkv
http://www.filecondo.com/dl.php?f=W653c81RyGdY

The.Last.Immortal.2023.S01E30.2160p.WeTV.WEB-DL.DDP2.0.x265_SkiesIT.mkv
http://www.filecondo.com/dl.php?f=Z0c94a1RyGcZ

The.Last.Immortal.2023.S01E29.2160p.WeTV.WEB-DL.DDP2.0.x265_SkiesIT.mkv
http://www.filecondo.com/dl.php?f=W98db41RyGc2

The.Last.Immortal.2023.S01E28.2160p.WeTV.WEB-DL.DDP2.0.x265_SkiesIT.mkv
http://www.filecondo.com/dl.php?f=v76c261RyGb4

The.Last.Immortal.2023.S01E28.1080p.WeTV.WEB-DL.DDP2.0.x264_SkiesIT.mkv
http://www.filecondo.com/dl.php?f=00bd0b1RyGa4

The.Last.Immortal.2023.S01E27.2160p.WeTV.WEB-DL.DDP2.0.x265_SkiesIT.mkv
http://www.filecondo.com/dl.php?f=b6fe561RyG97

The.Last.Immortal.2023.S01E26.2160p.WeTV.WEB-DL.DDP2.0.x265_SkiesIT.mkv
http://www.filecondo.com/dl.php?f=Y9e7c21RyG89

The.Last.Immortal.2023.S01E25.2160p.WeTV.WEB-DL.DDP2.0.x265_SkiesIT.mkv
http://www.filecondo.com/dl.php?f=w7ab3b1RyG7d

The.Last.Immortal.2023.S01E24.2160p.WeTV.WEB-DL.DDP2.0.x265_SkiesIT.mkv
http://www.filecondo.com/dl.php?f=39a6831RyG6d

The.Last.Immortal.2023.S01E23.2160p.WeTV.WEB-DL.DDP2.0.x265_SkiesIT.mkv
http://www.filecondo.com/dl.php?f=If77201RyG5g

The.Last.Immortal.2023.S01E22.2160p.WeTV.WEB-DL.DDP2.0.x265_SkiesIT.mkv
http://www.filecondo.com/dl.php?f=q9a8f81RyG4i

The.Last.Immortal.2023.S01E21.2160p.WeTV.WEB-DL.DDP2.0.x265_SkiesIT.mkv
http://www.filecondo.com/dl.php?f=i499121RyG3k

The.Last.Immortal.2023.S01E20.2160p.WeTV.WEB-DL.DDP2.0.x265_SkiesIT.mkv
http://www.filecondo.com/dl.php?f=J82ad41RyG2m

The.Last.Immortal.2023.S01E19.2160p.WeTV.WEB-DL.DDP2.0.x265_SkiesIT.mkv
http://www.filecondo.com/dl.php?f=x57e411RyG1o

The.Last.Immortal.2023.S01E18.2160p.WeTV.WEB-DL.DDP2.0.x265_SkiesIT.mkv
http://www.filecondo.com/dl.php?f=l33c801RyG0p

The.Last.Immortal.2023.S01E17.2160p.WeTV.WEB-DL.DDP2.0.x265_SkiesIT.mkv
http://www.filecondo.com/dl.php?f=g6da8b1RyFZs

The.Last.Immortal.2023.S01E16.2160p.WeTV.WEB-DL.DDP2.0.x265_SkiesIT.mkv
http://www.filecondo.com/dl.php?f=p578901RyFYu

The.Last.Immortal.2023.S01E15.2160p.WeTV.WEB-DL.DDP2.0.x265_SkiesIT.mkv
http://www.filecondo.com/dl.php?f=mb8f671RyFXw

The.Last.Immortal.2023.S01E14.2160p.WeTV.WEB-DL.DDP2.0.x265_SkiesIT.mkv
http://www.filecondo.com/dl.php?f=40126a1RyFWx

The.Last.Immortal.2023.S01E13.2160p.WeTV.WEB-DL.DDP2.0.x265_SkiesIT.mkv
http://www.filecondo.com/dl.php?f=3a82991RyFVA

The.Last.Immortal.2023.S01E12.2160p.WeTV.WEB-DL.DDP2.0.x265_SkiesIT.mkv
http://www.filecondo.com/dl.php?f=f21e2c1RyFUB

The.Last.Immortal.2023.S01E11.2160p.WeTV.WEB-DL.DDP2.0.x265_SkiesIT.mkv
http://www.filecondo.com/dl.php?f=He022f1RyFTE

The.Last.Immortal.2023.S01E10.2160p.WeTV.WEB-DL.DDP2.0.x265_SkiesIT.mkv
http://www.filecondo.com/dl.php?f=Ha06c71RyFSG

The.Last.Immortal.2023.S01E09.2160p.WeTV.WEB-DL.DDP2.0.x265_SkiesIT.mkv
http://www.filecondo.com/dl.php?f=Q09c771RyFRI

The.Last.Immortal.2023.S01E08.2160p.WeTV.WEB-DL.DDP2.0.x265_SkiesIT.mkv
http://www.filecondo.com/dl.php?f=A37c641RyFQK

The.Last.Immortal.2023.S01E07.2160p.WeTV.WEB-DL.DDP2.0.x265_SkiesIT.mkv
http://www.filecondo.com/dl.php?f=m71c5e1RyFPM

The.Last.Immortal.2023.S01E06.2160p.WeTV.WEB-DL.DDP2.0.x265_SkiesIT.mkv
http://www.filecondo.com/dl.php?f=t894611RyFOO

The.Last.Immortal.2023.S01E05.2160p.WeTV.WEB-DL.DDP2.0.x265_SkiesIT.mkv
http://www.filecondo.com/dl.php?f=s845471RyFNR

The.Last.Immortal.2023.S01E04.2160p.WeTV.WEB-DL.DDP2.0.x265_SkiesIT.mkv
http://www.filecondo.com/dl.php?f=Cb6ee41RyFMT

The.Last.Immortal.2023.S01E03.2160p.WeTV.WEB-DL.DDP2.0.x265_SkiesIT.mkv
http://www.filecondo.com/dl.php?f=554cde1RyFLV

The.Last.Immortal.2023.S01E02.2160p.WeTV.WEB-DL.DDP2.0.x265_SkiesIT.mkv
http://www.filecondo.com/dl.php?f=Le88961RyFKW

The.Last.Immortal.2023.S01E01.2160p.WeTV.WEB-DL.DDP2.0.x265_SkiesIT.mkv
http://www.filecondo.com/dl.php?f=4e22861RyFJY