+ ตอบกลับกระทู้
สรุปผลการค้นหา 1 ถึง 3 จากทั้งหมด 3
  1. #1
    Administrators รูปส่วนตัว Duckload.us
    สมัครเมื่อ
    Dec 2010
    โพสต์
    151,798
    Thanks
    7
    Thanked 158,766 Times in 69,412 Posts

    Lightbulb [ฝรั่ง]-[* ใหม่ร้อนๆ! + เสียงไทยโรง ซับไทย(แปล) *] Dune: Part Two (2024) ดูน ภาคสอง • [พากย์ไทยโรง + เสียงอังกฤษ] • [บรรยาย: ไทย(แปล)-อังกฤษ + ซับ PGS คมชัด] • [* WEB-DL 1080p! *]



    ••• Dune.Part.Two.2024.1080p.WEB-DL.H264.THR •••
    เสียง : พากย์ไทยโรง + เสียงอังกฤษ บรรยาย : ไทย(แปล) + อังกฤษ

    Dune-part-two ตำนานการผจญภัยยังคงดำเนินต่อ เมื่อผู้สร้างภาพยนตร์เจ้าของรางวัล เดนิส วิลเนิฟ ร่วมงานในเรื่อง “Dune: Part Two” ผลงานภาคต่อจากนิยายเรื่องดังของแฟรงค์ เฮอร์เบิร์ท Dune พร้อมด้วยทีมนักแสดงจากทั่วโลก ผลงานภาพยนตร์จากวอร์เนอร์ บราเดอร์ส พิกเจอร์ส และ เลเจนดารี่ พิกเจอร์ส เป็นที่คาดหวังอย่างสูงจากผลงานภาพยนตร์เรื่อง “Dune” ปี 2021 ที่ได้รับรางวัล Academy Award ถึง 6 รางวัล

    ตำนานความยิ่งใหญ่บนจอยักษ์เป็นเรื่องราวต่อเนื่องจา กผลงานขายดีชื่อดังของแฟรงค์ เฮอร์เบิร์ท Dune พร้อมทั้งนักแสดงที่กลับมาร่วมงานและนักแสดงหน้าใหม่ รวมถึงทิโมธี ชาลาเมต์ ผู้เข้าชิงรางวัล Oscar (“Wonka,” “Call Me by Your Name”) เซนดายา (“Spider-Man: No Way Home,” “Malcolm & Marie,” “Euphoria”) รีเบ็คก้า เฟอร์กูสัน (“Mission: Impossible – Dead Reckoning”) จอช โบรลิน ผู้ชิงรางวัล Oscar (“Avengers: End Game,” “Milk”) ออสติน บัตเลอร์ ผู้ชิงรางวัล Oscar (“Elvis,” “Once Upon A Time…In Hollywood”) ฟลอเรนซ์ พิวห์ ผู้ชิงรางวัล Oscar (“Black Widow,” “Little Women”) เดฟ บาวทิสตา (ภาพยนตร์ “Guardians of the Galaxy”, “Thor: Love and Thunder”) คริสโตเฟอร์ วัลเคน เจ้าของรางวัล Oscar (“The Deer Hunter,” “Hairspray”) สตีเฟน แมคคินลีย์ เฮนเดอร์สัน (“Fences,” “Lady Bird”) เลอา แซดู (ภาพยนตร์แฟรนไชส์ “James Bond” และ “Crimes of the Future”) พร้อมด้วยสเตลแลน ซาร์สการ์ด (ภาพยนตร์ “Mamma Mia!”, “Avengers: Age of Ultron”) ชาร์ลอต แรมพลิง ผู้เข้าชิงรางวัล Oscar (“45 Years,” “Assassin’s Creed”) และฮาเวียร์ บาร์เดม เจ้าของรางวัล Oscar (“No Country for Old Men,” “Being the Ricardos”)

    ภาพยนตร์ “Dune: Part Two” เป็นการสำรวจการเดินทางแห่งเทพนิยายของพอล อะเทรดีส เขาร่วมมือกับชานีและเฟรแมนเดินทางล้างแค้น เผชิญหน้ากับผู้สมรู้ร่วมคิดที่ทำลายครอบครัวของเขา และต้องเลือกระหว่างความรักของเขากับชะตาชีวิตที่เห็ นทุกสิ่ง เขาพยายามปกป้องเรื่องร้ายๆ ในอนาคตที่มีเพียงเขาหยั่งรู้ได้

    วิลเนิฟกำกับผลงานจากบทภาพยนตร์ที่เขาเขียนร่วมกับจอ น สเพทส์ โดยอิงจากนิยายของเฮอร์เบิร์ท อำนวยการสร้างฯ โดยแมรี่ แพเรนท์, เคล บอยเทอร์, วิลเนิฟ, ทันยา ลาพอยท์ และ แพทริค แมคคอร์มิค อำนวยการสร้างบริหารฯ โดยจอช โกรด, เฮอร์เบิร์ท ดับบลิว เกนส์, จอน สเพทส์, โธมัส ทัล, ไบรอัน เฮอร์เบิร์ท, ไบรอน เมอร์ริตต์, คิม เฮอร์เบิร์ท ที่ปรึกษาฝ่ายสร้างสรรค์โดยเควิน เจ. แอนเดอร์สัน

    วิลเนิฟกลับมาร่วมงานกับผู้สร้างสรรค์เดิมจากเรื่อง “Dune” ของเขา ได้แก่ ผู้กำกับภาพเจ้าของรางวัล Oscar เกร็ก ฟราเซอร์ ผู้ออกแบบฉากเจ้าของรางวัล Oscar แพทริซ เวอร์เม็ตต์ ผู้ลำดับภาพเจ้าของรางวัล Oscar โจ วอล์คเกอร์ ผู้ควบคุมวิชวลเอ็ฟเฟ็กต์เจ้าของรางวัล Oscar พอล แลมเบิร์ท ผู้ออกแบบเครื่องแต่งกายเข้าชิงรางวัล Oscar แจ็กเกอลีน เวสต์ ผู้ประพันธ์ดนตรีเจ้าของรางวัล Oscar ฮานส์ ซิมเมอร์ ที่มาช่วยสร้างสรรค์บทเพลงอีกครั้ง!

    Format : Matroska
    Format version : Version 4
    File size : 8.68 GiB
    Duration : 2 h 45 min
    Overall bit rate : 7 498 kb/s
    Frame rate : 23.976 FPS
    Movie name : Dune.Part.Two.2024.1080p.WEB-DL.H264.THR_Mr.Captain@BearBit

    Video
    ID : 1
    Format : AVC
    Format/Info : Advanced Video Codec
    Format profile : Main@L4
    Format settings : CABAC / 4 Ref Frames
    Format settings, CABAC : Yes
    Format settings, Reference : 4 frames
    Codec ID : V_MPEG4/ISO/AVC
    Duration : 2 h 45 min
    Bit rate mode : Variable
    Bit rate : 5 535 kb/s
    Maximum bit rate : 16.0 Mb/s
    Width : 1 920 pixels
    Height : 800 pixels
    Display aspect ratio : 2.40:1
    Frame rate mode : Constant
    Frame rate : 23.976 (24000/1001) FPS
    Color space : YUV
    Chroma subsampling : 4:2:0
    Bit depth : 8 bits
    Scan type : Progressive
    Bits/(Pixel*Frame) : 0.150
    Stream size : 6.41 GiB (74%)
    Title : Dune.Part.Two.2024.1080p.WEB-DL.H264.THR_Mr.Captain@BearBit
    Language : English
    Default : Yes
    Forced : No
    Color range : Limited
    Color primaries : BT.709
    Transfer characteristics : BT.709
    Matrix coefficients : BT.709

    Audio #1
    ID : 2
    Format : AC-3
    Format/Info : Audio Coding 3
    Commercial name : Dolby Digital
    Codec ID : A_AC3
    Duration : 2 h 45 min
    Bit rate mode : Constant
    Bit rate : 384 kb/s
    Channel(s) : 2 channels
    Channel layout : L R
    Sampling rate : 48.0 kHz
    Frame rate : 31.250 FPS (1536 SPF)
    Compression mode : Lossy
    Stream size : 455 MiB (5%)
    Title : Thai Rong 2.0
    Language : Thai
    Service kind : Complete Main
    Default : Yes
    Forced : Yes

    Audio #2
    ID : 3
    Format : PCM
    Format settings : Little / Signed
    Codec ID : A_PCM/INT/LIT
    Duration : 2 h 45 min
    Bit rate mode : Constant
    Bit rate : 1 536 kb/s
    Channel(s) : 2 channels
    Sampling rate : 48.0 kHz
    Frame rate : 32.000 FPS (1500 SPF)
    Bit depth : 16 bits
    Stream size : 1.78 GiB (20%)
    Title : English 2.0
    Language : English
    Default : No
    Forced : No

    Text #1
    ID : 4
    Format : PGS
    Codec ID : S_HDMV/PGS
    Codec ID/Info : Picture based subtitle format used on BDs/HD-DVDs
    Duration : 2 h 37 min
    Bit rate : 19.4 kb/s
    Frame rate : 0.232 FPS
    Count of elements : 2192
    Stream size : 21.9 MiB (0%)
    Title : Thai PGS
    Language : Thai
    Default : No
    Forced : No

    Text #2
    ID : 5
    Format : VobSub
    Codec ID : S_VOBSUB
    Codec ID/Info : Picture based subtitle format used on DVDs
    Duration : 2 h 37 min
    Bit rate : 4 592 b/s
    Frame rate : 0.115 FPS
    Count of elements : 1089
    Stream size : 5.18 MiB (0%)
    Title : Thai 1080p
    Language : Thai
    Default : No
    Forced : No

    Text #3
    ID : 6
    Format : UTF-8
    Codec ID : S_TEXT/UTF8
    Codec ID/Info : UTF-8 Plain Text
    Duration : 2 h 37 min
    Bit rate : 71 b/s
    Frame rate : 0.116 FPS
    Count of elements : 1096
    Stream size : 82.1 KiB (0%)
    Title : Thai SRT
    Language : Thai
    Default : No
    Forced : No

    Text #4
    ID : 7
    Format : PGS
    Codec ID : S_HDMV/PGS
    Codec ID/Info : Picture based subtitle format used on BDs/HD-DVDs
    Duration : 2 h 36 min
    Bit rate : 18.8 kb/s
    Frame rate : 0.244 FPS
    Count of elements : 2294
    Stream size : 21.1 MiB (0%)
    Title : English PGS
    Language : English
    Default : No
    Forced : No

    Text #5
    ID : 8
    Format : UTF-8
    Codec ID : S_TEXT/UTF8
    Codec ID/Info : UTF-8 Plain Text
    Duration : 2 h 36 min
    Bit rate : 27 b/s
    Frame rate : 0.122 FPS
    Count of elements : 1147
    Stream size : 32.0 KiB (0%)
    Title : English SRT
    Language : English
    Default : No
    Forced : No











    Dune.Part.Two.2024.1080p.WEB-DL.H264.THR_Mr.Captain.mkv
    http://www.filecondo.com/dl.php?f=eacef81RV9cy

    9.32 GB

  2. The Following 2 Users Say Thank You to Duckload.us For This Useful Post:

    sawara (04-12-2024), Wesker_TOT (04-13-2024)

  3. #2
    Senior Member
    สมัครเมื่อ
    Dec 2013
    โพสต์
    1,067
    Thanks
    1,031
    Thanked 0 Times in 0 Posts
    ขอบคุณครับบ

  4. #3
    Senior Member
    สมัครเมื่อ
    Dec 2013
    โพสต์
    6,241
    Thanks
    8,224
    Thanked 0 Times in 0 Posts
    ขอบคุณครับ...

+ ตอบกลับกระทู้

ข้อมูลกระทู้

Users Browsing this Thread

ในขณะนี้มี 1 ท่านดูกระทู้อยู่. (0 สมาชิกและ 1 ผู้เยี่ยมชม)

     

กฎการโพสต์ข้อความ

  • ท่าน ไม่สามารถ ตั้งกระทู้ใหม่ได้
  • ท่าน ไม่สามารถ ตอบกระทู้ได้
  • ท่าน ไม่สามารถ แนบไฟล์ได้
  • ท่าน ไม่สามารถ แก้ไขข้อความโพสต์ได้
  • BB code สถานะ เปิด
  • Smilies สถานะ เปิด
  • [IMG] สถานะ เปิด
  • HTML สถานะ ปิด