+ ตอบกลับกระทู้
สรุปผลการค้นหา 1 ถึง 2 จากทั้งหมด 2
  1. #1
    Administrators รูปส่วนตัว Duckload.us
    สมัครเมื่อ
    Dec 2010
    โพสต์
    151,649
    Thanks
    7
    Thanked 158,661 Times in 69,352 Posts

    Lightbulb [เกาหลี]-[Netflix] Queen of Tears (2024) ราชินีแห่งน้ำตา-WEB-DL.H.264.1080p. [Master]-[พากย์ไทย/เกาหลี บรรยายไทย]



    Video
    ID : 1
    Format : AVC
    Format/Info : Advanced Video Codec
    Format profile : High@L4
    Format settings : CABAC / 3 Ref Frames
    Format settings, CABAC : Yes
    Format settings, Reference frames : 3 frames
    Codec ID : V_MPEG4/ISO/AVC
    Duration : 1 h 49 min
    Bit rate : 2 652 kb/s
    Width : 1 920 pixels
    Height : 1 080 pixels
    Display aspect ratio : 16:9
    Frame rate mode : Constant
    Frame rate : 23.976 (24000/1001) FPS
    Color space : YUV
    Chroma subsampling : 4:2:0
    Bit depth : 8 bits
    Scan type : Progressive
    Bits/(Pixel*Frame) : 0.053
    Stream size : 2.03 GiB (91%)
    Writing library : Lavc59.38.100 h264_qsv
    Default : Yes
    Forced : No
    VENDOR_ID : [0][0][0][0]

    Audio #1
    ID : 2
    Format : AAC LC SBR
    Format/Info : Advanced Audio Codec Low Complexity with Spectral Band Replication
    Commercial name : HE-AAC
    Format settings : Explicit
    Codec ID : A_AAC-2
    Duration : 1 h 49 min
    Bit rate : 128 kb/s
    Channel(s) : 2 channels
    Channel layout : L R
    Sampling rate : 48.0 kHz
    Frame rate : 23.438 FPS (2048 SPF)
    Compression mode : Lossy
    Stream size : 100 MiB (4%)
    Title : Korean (Original)
    Language : Korean
    Default : Yes
    Forced : No
    VENDOR_ID : [0][0][0][0]

    Audio #2
    ID : 3
    Format : E-AC-3
    Format/Info : Enhanced AC-3
    Commercial name : Dolby Digital Plus
    Codec ID : A_EAC3
    Duration : 1 h 50 min
    Bit rate mode : Constant
    Bit rate : 128 kb/s
    Channel(s) : 2 channels
    Channel layout : L R
    Sampling rate : 48.0 kHz
    Frame rate : 31.250 FPS (1536 SPF)
    Compression mode : Lossy
    Stream size : 101 MiB (4%)
    Language : Thai
    Service kind : Complete Main
    Default : Yes
    Forced : No
    Dialog Normalization : -27 dB
    compr : -0.28 dB
    dialnorm_Average : -27 dB
    dialnorm_Minimum : -27 dB
    dialnorm_Maximum : -27 dB

    Text #1
    ID : 4
    Format : UTF-8
    Codec ID : S_TEXT/UTF8
    Codec ID/Info : UTF-8 Plain Text
    Duration : 1 h 45 min
    Bit rate : 120 b/s
    Frame rate : 0.236 FPS
    Count of elements : 1493
    Stream size : 93.1 KiB (0%)
    Title : Thai
    Writing library : Lavc59.38.100 srt
    Language : Thai
    Default : Yes
    Forced : No

    Text #2
    ID : 5
    Format : VobSub
    Muxing mode : zlib
    Codec ID : S_VOBSUB
    Codec ID/Info : Picture based subtitle format used on DVDs
    Duration : 1 h 49 min
    Bit rate : 8 703 b/s
    Frame rate : 0.228 FPS
    Count of elements : 1495
    Stream size : 6.81 MiB (0%)
    Title : Thai
    Writing library : Lavc59.38.100 dvdsub
    Language : Thai
    Default : No
    Forced : No



    Queen_of_Tears_S01E16_Episode_16.mkv
    http://www.filecondo.com/dl.php?f=U547411S6ynH

    Queen_of_Tears_S01E15_Episode_15.mkv
    http://www.filecondo.com/dl.php?f=k13c591S6ymI

    Queen_of_Tears_S01E14_Episode_14.mkv
    http://www.filecondo.com/dl.php?f=sc9e791S6ylM

    Queen_of_Tears_S01E13_Episode_13.mkv
    http://www.filecondo.com/dl.php?f=W8b3171S6ykP

    Queen_of_Tears_S01E12_Episode_12.mkv
    http://www.filecondo.com/dl.php?f=I250fd1S6yjO

    Queen_of_Tears_S01E11_Episode_11.mkv
    http://www.filecondo.com/dl.php?f=Kc355c1S6yiO

    Queen_of_Tears_S01E10_Episode_10.mkv
    http://www.filecondo.com/dl.php?f=C00e1f1S6yhQ

    Queen_of_Tears_S01E09_Episode_9.mkv
    http://www.filecondo.com/dl.php?f=mf47611S6ygS

    Queen_of_Tears_S01E08_Episode_8.mkv
    http://www.filecondo.com/dl.php?f=x295741S6yfU

    Queen_of_Tears_S01E07_Episode_7.mkv
    http://www.filecondo.com/dl.php?f=P020511S6yeV

    Queen_of_Tears_S01E06_Episode_6.mkv
    http://www.filecondo.com/dl.php?f=d03f3e1S6ydY

    Queen_of_Tears_S01E05_Episode_5.mkv
    http://www.filecondo.com/dl.php?f=2be0a31S6yd0

    Queen_of_Tears_S01E04_Episode_4.mkv
    http://www.filecondo.com/dl.php?f=lc3ee71S6yc2

    Queen_of_Tears_S01E03_Episode_3.mkv
    http://www.filecondo.com/dl.php?f=27243a1S6yb3

    Queen_of_Tears_S01E02_Episode_2.mkv
    http://www.filecondo.com/dl.php?f=x723431S6ya6

    Queen_of_Tears_S01E01_Episode_1.mkv
    http://www.filecondo.com/dl.php?f=Pe8fa91S6y97

  2. The Following User Says Thank You to Duckload.us For This Useful Post:

    sawara (05-15-2024)

  3. #2
    Senior Member
    สมัครเมื่อ
    Dec 2013
    โพสต์
    1,057
    Thanks
    1,019
    Thanked 0 Times in 0 Posts
    ขอบคุณครับบ

+ ตอบกลับกระทู้

ข้อมูลกระทู้

Users Browsing this Thread

ในขณะนี้มี 1 ท่านดูกระทู้อยู่. (0 สมาชิกและ 1 ผู้เยี่ยมชม)

     

กฎการโพสต์ข้อความ

  • ท่าน ไม่สามารถ ตั้งกระทู้ใหม่ได้
  • ท่าน ไม่สามารถ ตอบกระทู้ได้
  • ท่าน ไม่สามารถ แนบไฟล์ได้
  • ท่าน ไม่สามารถ แก้ไขข้อความโพสต์ได้
  • BB code สถานะ เปิด
  • Smilies สถานะ เปิด
  • [IMG] สถานะ เปิด
  • HTML สถานะ ปิด