+ ตอบกลับกระทู้
สรุปผลการค้นหา 1 ถึง 4 จากทั้งหมด 4
  1. #1
    Administrators รูปส่วนตัว Duckload.us
    สมัครเมื่อ
    Dec 2010
    โพสต์
    152,147
    Thanks
    7
    Thanked 159,124 Times in 69,603 Posts

    Lightbulb [ฝรั่ง]-The Winter King (2023) เดอะ วินเทอร์ คิง Season 1 [เสียง:ไทย TrueID-อังกฤษ AC-3 5.1][บรรยาย: ไทย PGS/SRT TrueID-อังกฤษ SRT ]-WEB-DL.H.264.1080p. [From HD-TV]-[พากย์ไทย บรรยายไทย]




    เรื่องย่อ
    เรื่องราวเริ่มต้นขึ้นหลังจากนักรบผู้ทรงพลัง เจ้าชายอาเธอร์ (รับบทโดย เอียน เดอ แคสเท็กเกอร์) ถูกกษัตริย์ อูเธอร์ (รับบทโดย เอ็ดดี มาร์ซาน) ผู้เป็นบิดาบังเกิดเกล้า เนรเทศให้ไปอยู่ในพื้นที่ห่างไกล หลังจากเขาได้ช่วยชีวิตชายหนุ่มผู้หนึ่งอย่าง ดาร์เฟล (รับบทโดย สจวต แคมป์เบล) ให้พ้นจากความตาย อาเธอร์ ได้ฝาก ดาร์เฟล ให้ เมอร์ลิน (รับบทโดย นาธาเนียล มาร์เทลโล-ไวต์) และนิมมู นักบวชสาวให้ช่วยดูแลต่อก่อนที่เขาจะจากไป
    หลังจากนั้นไม่นานสงครามครั้งรุนแรงก็ได้ปะทุขึ้น เมอร์ลิน จึงต้องรีบออกเดินทางไปพบ อาเธอร์ เพื่อขอร้องให้เขากลับมากอบกู้ชาติที่กำลังล่มสลาย


    Video
    ID : 1
    Format : AVC
    Format/Info : Advanced Video Codec
    Format profile : High@L4
    Format settings : CABAC / 4 Ref Frames
    Format settings, CABAC : Yes
    Format settings, Reference fra : 4 frames
    Codec ID : V_MPEG4/ISO/AVC
    Duration : 57 min 2 s
    Bit rate mode : Variable
    Bit rate : 8 250 kb/s
    Maximum bit rate : 12.4 Mb/s
    Width : 1 920 pixels
    Height : 1 080 pixels
    Display aspect ratio : 16:9
    Frame rate mode : Constant
    Frame rate : 25.000 FPS
    Color space : YUV
    Chroma subsampling : 4:2:0
    Bit depth : 8 bits
    Scan type : Progressive
    Bits/(Pixel*Frame) : 0.159
    Stream size : 3.28 GiB (92%)
    Writing library : x264 core 157 r2965 861cec4
    Encoding settings : cabac=1 / ref=4 / deblock=1:0:0 / analyse=0x3:0x113 / me=hex / subme=7 / psy=1 / psy_rd=1.00:0.00 / mixed_ref=1 / me_range=16 / chroma_me=1 / trellis=1 / 8x8dct=1 / cqm=0 / deadzone=21,11 / fast_pskip=1 / chroma_qp_offset=-2 / threads=34 / lookahead_threads=5 / sliced_threads=0 / nr=0 / decimate=1 / interlaced=0 / bluray_compat=0 / constrained_intra=0 / bframes=3 / b_pyramid=2 / b_adapt=1 / b_bias=0 / direct=1 / weightb=1 / open_gop=0 / weightp=2 / keyint=100 / keyint_min=100 / scenecut=40 / intra_refresh=0 / rc_lookahead=40 / rc=2pass / mbtree=1 / bitrate=8250 / ratetol=1.0 / qcomp=0.60 / qpmin=0 / qpmax=69 / qpstep=4 / cplxblur=20.0 / qblur=0.5 / vbv_maxrate=12375 / vbv_bufsize=6187 / nal_hrd=vbr / filler=0 / ip_ratio=1.40 / aq=1:1.00
    Default : Yes
    Forced : No
    Color range : Limited
    Color primaries : BT.709
    Transfer characteristics : BT.709
    Matrix coefficients : BT.709

    Audio #1
    ID : 2
    Format : AC-3
    Format/Info : Audio Coding 3
    Commercial name : Dolby Digital
    Codec ID : A_AC3
    Duration : 57 min 2 s
    Bit rate mode : Constant
    Bit rate : 320 kb/s
    Channel(s) : 2 channels
    Channel layout : L R
    Sampling rate : 48.0 kHz
    Frame rate : 31.250 FPS (1536 SPF)
    Compression mode : Lossy
    Stream size : 131 MiB (4%)
    Title : [Thai-AC-3]
    Language : Thai
    Service kind : Complete Main
    Default : Yes
    Forced : No

    Audio #2
    ID : 3
    Format : AC-3
    Format/Info : Audio Coding 3
    Commercial name : Dolby Digital
    Codec ID : A_AC3
    Duration : 57 min 1 s
    Bit rate mode : Constant
    Bit rate : 384 kb/s
    Channel(s) : 6 channels
    Channel layout : L R C LFE Ls Rs
    Sampling rate : 48.0 kHz
    Frame rate : 31.250 FPS (1536 SPF)
    Compression mode : Lossy
    Stream size : 157 MiB (4%)
    Title : [English-AC-3 5.1]
    Language : English
    Service kind : Complete Main
    Default : No
    Forced : No

    Text #1
    ID : 4
    Format : PGS
    Muxing mode : zlib
    Codec ID : S_HDMV/PGS
    Codec ID/Info : Picture based subtitle format used on BDs/HD-DVDs
    Duration : 56 min 48 s
    Bit rate : 38.9 kb/s
    Count of elements : 994
    Stream size : 15.8 MiB (0%)
    Title : [Thai PGS]
    Language : Thai
    Default : Yes
    Forced : No

    Text #2
    ID : 5
    Format : UTF-8
    Codec ID : S_TEXT/UTF8
    Codec ID/Info : UTF-8 Plain Text
    Duration : 56 min 48 s
    Bit rate : 92 b/s
    Count of elements : 497
    Stream size : 38.6 KiB (0%)
    Title : Thai
    Language : Thai
    Default : No
    Forced : No

    Text #3
    ID : 6
    Format : UTF-8
    Codec ID : S_TEXT/UTF8
    Codec ID/Info : UTF-8 Plain Text
    Duration : 55 min 57 s
    Bit rate : 35 b/s
    Count of elements : 517
    Stream size : 14.7 KiB (0%)
    Title : English
    Language : English
    Default : No
    Forced : No





    The.Winter.King.S01E10.1080p.WEB-DL.H264.DD5.1.Modified_By_mxn.mkv
    http://www.filecondo.com/dl.php?f=V879ea1Setm2

    The.Winter.King.S01E09.1080p.WEB-DL.H264.DD5.1.Modified_By_mxn.mkv
    http://www.filecondo.com/dl.php?f=P1b5b31Setl9

    The.Winter.King.S01E08.1080p.WEB-DL.H264.DD5.1.Modified_By_mxn.mkv
    http://www.filecondo.com/dl.php?f=nad08a1Setka

    The.Winter.King.S01E07.1080p.WEB-DL.H264.DD5.1.Modified_By_mxn.mkv
    http://www.filecondo.com/dl.php?f=m244331Setjc

    The.Winter.King.S01E06.1080p.WEB-DL.H264.DD5.1.Modified_By_mxn.mkv
    http://www.filecondo.com/dl.php?f=90cdf11Setif

    The.Winter.King.S01E05.1080p.WEB-DL.H264.DD5.1.Modified_By_mxn.mkv
    http://www.filecondo.com/dl.php?f=C79e4b1Sethh

    The.Winter.King.S01E04.1080p.WEB-DL.H264.DD5.1.Modified_By_mxn.mkv
    http://www.filecondo.com/dl.php?f=e985231Setgj

    The.Winter.King.S01E03.1080p.WEB-DL.H264.DD5.1.Modified_By_mxn.mkv
    http://www.filecondo.com/dl.php?f=531a991Setfl

    The.Winter.King.S01E02.1080p.WEB-DL.H264.DD5.1.Modified_By_mxn.mkv
    http://www.filecondo.com/dl.php?f=l8f93d1Setel

    The.Winter.King.S01E01.1080p.WEB-DL.H264.DD5.1.Modified_By_mxn.mkv
    http://www.filecondo.com/dl.php?f=7995681Setdo

  2. The Following 2 Users Say Thank You to Duckload.us For This Useful Post:

    Nam1499 (06-05-2024), petpina2010 (06-05-2024)

  3. #2
    Senior Member รูปส่วนตัว petpina2010
    สมัครเมื่อ
    Jun 2020
    โพสต์
    259
    Thanks
    257
    Thanked 0 Times in 0 Posts
    ขอบคุณครับ

  4. #3
    Senior Member
    สมัครเมื่อ
    Feb 2024
    โพสต์
    385
    Thanks
    352
    Thanked 0 Times in 0 Posts
    ข อ บ คุ ณ ม า ก ค่ ะ

  5. #4
    Junior Member
    สมัครเมื่อ
    Jul 2012
    ที่อยู่
    Usa
    โพสต์
    2
    Thanks
    0
    Thanked 0 Times in 0 Posts

    Search Pretty Womans in your city for night


+ ตอบกลับกระทู้

ข้อมูลกระทู้

Users Browsing this Thread

ในขณะนี้มี 1 ท่านดูกระทู้อยู่. (0 สมาชิกและ 1 ผู้เยี่ยมชม)

     

กฎการโพสต์ข้อความ

  • ท่าน ไม่สามารถ ตั้งกระทู้ใหม่ได้
  • ท่าน ไม่สามารถ ตอบกระทู้ได้
  • ท่าน ไม่สามารถ แนบไฟล์ได้
  • ท่าน ไม่สามารถ แก้ไขข้อความโพสต์ได้
  • BB code สถานะ เปิด
  • Smilies สถานะ เปิด
  • [IMG] สถานะ เปิด
  • HTML สถานะ ปิด