+ ตอบกลับกระทู้
สรุปผลการค้นหา 1 ถึง 6 จากทั้งหมด 6
  1. #1
    Administrators รูปส่วนตัว Duckload.us
    สมัครเมื่อ
    Dec 2010
    โพสต์
    152,147
    Thanks
    7
    Thanked 159,125 Times in 69,604 Posts

    Lightbulb [ฝรั่ง]-[ภาพชัด+เสียงโรงครบ]Boy Kills World แค้นนี้ที่รอคิวล์ [พากย์ไทยโรง-อังกฤษ][ซับอังกฤษ]-WEB-DL.H.264.1080p. [Master]-[พากย์ไทยโรง]



    เรื่องย่อ
    เรื่องราวของเด็กชายคนหนึ่งช่างจินตนาการคนหนึ่ง ที่มีความพิการทั้งการพูดและการได้ยิน จนเมื่อครอบครัวของเขาถูกฆาตกรรม เขาจึงถูกฝึกฝนโดนหมอผีคนหนึ่งในต่อต้านความช่างจินต นาการของตัวเอง เพื่อที่จะกลายมาเป็นเครื่องจักรสังหาร



    General
    Unique ID : 284578650403627129190473006527330082127 (0xD617DABC39423481100A7FF6ABCB5D4F)
    Complete name : D:โหลดบืทBoy Kills World 2023 1080p AMZN WEB-DL DDP5 1 H 264-BYNDR[TGx]Boy.Kills.World.2023.1080p.AMZN.WEB-DL.DDP5.1.H.264.THR.rezero235789.mkv
    Format : Matroska
    Format version : Version 4
    File size : 6.08 GiB
    Duration : 1 h 50 min
    Overall bit rate mode : Variable
    Overall bit rate : 7 868 kb/s
    Frame rate : 23.976 FPS
    Movie name : Boy.Kills.World.2023.1080p.AMZN.WEB-DL.DDP5.1.H.264.THR.rezero235789
    Encoded date : 2024-05-31 14:49:33 UTC
    Writing application : mkvmerge v83.0 ('Circle Of Friends') 64-bit
    Writing library : libebml v1.4.5 + libmatroska v1.7.1
    Cover : Yes
    Attachments : cover.jpg

    Video
    ID : 1
    Format : AVC
    Format/Info : Advanced Video Codec
    Format profile : High@L4
    Format settings : CABAC / 4 Ref Frames
    Format settings, CABAC : Yes
    Format settings, Reference fra : 4 frames
    Codec ID : V_MPEG4/ISO/AVC
    Duration : 1 h 50 min
    Bit rate mode : Constant
    Bit rate : 6 817 kb/s
    Nominal bit rate : 10 000 kb/s
    Width : 1 920 pixels
    Height : 800 pixels
    Display aspect ratio : 2.40:1
    Frame rate mode : Constant
    Frame rate : 23.976 (24000/1001) FPS
    Color space : YUV
    Chroma subsampling : 4:2:0
    Bit depth : 8 bits
    Scan type : Progressive
    Bits/(Pixel*Frame) : 0.185
    Stream size : 5.27 GiB (87%)
    Default : Yes
    Forced : No
    Color range : Limited
    Color primaries : BT.709
    Transfer characteristics : BT.709
    Matrix coefficients : BT.709

    Audio #1
    ID : 2
    Format : FLAC
    Format/Info : Free Lossless Audio Codec
    Codec ID : A_FLAC
    Duration : 1 h 50 min
    Bit rate mode : Variable
    Bit rate : 408 kb/s
    Channel(s) : 2 channels
    Channel layout : L R
    Sampling rate : 48.0 kHz
    Frame rate : 11.719 FPS (4096 SPF)
    Bit depth : 16 bits
    Compression mode : Lossless
    Stream size : 323 MiB (5%)
    Title : Thai(Rong)By.rezero235789
    Writing library : libFLAC 20080709 (2008-07-09)
    Language : Thai
    Default : Yes
    Forced : Yes
    MD5 of the unencoded content : 70B8DBE5B3342ABFB9432BABECAB26F1

    Audio #2
    ID : 3
    Format : E-AC-3
    Format/Info : Enhanced AC-3
    Commercial name : Dolby Digital Plus
    Codec ID : A_EAC3
    Duration : 1 h 50 min
    Bit rate mode : Constant
    Bit rate : 640 kb/s
    Channel(s) : 6 channels
    Channel layout : L R C LFE Ls Rs
    Sampling rate : 48.0 kHz
    Frame rate : 31.250 FPS (1536 SPF)
    Compression mode : Lossy
    Stream size : 507 MiB (8%)
    Title : English
    Language : English
    Service kind : Complete Main
    Default : No
    Forced : No

    Text
    ID : 4
    Format : UTF-8
    Codec ID : S_TEXT/UTF8
    Codec ID/Info : UTF-8 Plain Text
    Duration : 1 h 12 min
    Bit rate : 0 b/s
    Frame rate : 0.002 FPS
    Count of elements : 10
    Stream size : 140 Bytes (0%)
    Title : English
    Language : English
    Default : No
    Forced : No

    Menu
    00:00:00.000 : en:Scene 01
    01:43:54.958 : en:End Credits

    Boy.Kills.World.2023.1080p.AMZN.WEB-DL.DDP5.1.H.264.THR.rezero235789.mkv
    http://www.filecondo.com/dl.php?f=y075021SeRzd

    6.53 GB

  2. The Following 3 Users Say Thank You to Duckload.us For This Useful Post:

    mta28 (06-08-2024), sawara (06-13-2024), Wesker_TOT (06-07-2024)

  3. #2
    Senior Member
    สมัครเมื่อ
    Dec 2013
    โพสต์
    6,290
    Thanks
    8,273
    Thanked 0 Times in 0 Posts
    ขอบคุณครับ...

  4. #3
    Member
    สมัครเมื่อ
    May 2012
    ที่อยู่
    Thailand
    โพสต์
    76
    Thanks
    696
    Thanked 0 Times in 0 Posts
    Thank you so much.

  5. #4
    Senior Member
    สมัครเมื่อ
    Jul 2014
    ที่อยู่
    Usa
    โพสต์
    195
    Thanks
    5
    Thanked 0 Times in 0 Posts

    Finest ัasual Dating - Verified Females

    Embrace the freedom of casual encounters on the best dating app in town!
    True Females
    Optimal casual Dating

  6. #5
    Senior Member
    สมัครเมื่อ
    Dec 2013
    โพสต์
    1,076
    Thanks
    1,040
    Thanked 0 Times in 0 Posts
    ขอบคุณครับบ

  7. #6
    Junior Member
    สมัครเมื่อ
    May 2015
    ที่อยู่
    Usa
    โพสต์
    1
    Thanks
    0
    Thanked 0 Times in 0 Posts

    Prime ัasual Dating - Real-life Females

    Elevate your dating game with the top site for hassle-free connections.
    Verified Females
    Exemplary casual Dating

+ ตอบกลับกระทู้

ข้อมูลกระทู้

Users Browsing this Thread

ในขณะนี้มี 1 ท่านดูกระทู้อยู่. (0 สมาชิกและ 1 ผู้เยี่ยมชม)

     

กฎการโพสต์ข้อความ

  • ท่าน ไม่สามารถ ตั้งกระทู้ใหม่ได้
  • ท่าน ไม่สามารถ ตอบกระทู้ได้
  • ท่าน ไม่สามารถ แนบไฟล์ได้
  • ท่าน ไม่สามารถ แก้ไขข้อความโพสต์ได้
  • BB code สถานะ เปิด
  • Smilies สถานะ เปิด
  • [IMG] สถานะ เปิด
  • HTML สถานะ ปิด