+ ตอบกลับกระทู้
สรุปผลการค้นหา 1 ถึง 9 จากทั้งหมด 9
  1. #1
    Administrators รูปส่วนตัว Duckload.us
    สมัครเมื่อ
    Dec 2010
    โพสต์
    152,672
    Thanks
    7
    Thanked 159,864 Times in 69,928 Posts

    Lightbulb [ฝรั่ง]-[HBO] House of the Dragon (2024) Season 2 Ep.1 -5 [เสียง:อังกฤษ AC-3 5.1-ไทย AC-3 2.0][บรรยาย: ไทย PGS/SRT-อังกฤษ SRT]-WEB-DL.H.264.1080p. [From HD-TV]-[พากย์ไทย บรรยายไทย]





    เรื่องย่อของซีรีส์ House of the Dragon
    ซีรีส์เรื่องนี้สร้างขึ้นมาจากนิยายแฟนตาซีขายดีของ George RR Martin เรื่อง “Fire & Blood” เล่าถึงช่วง 200 ปีก่อนเหตุการณ์มหาศึกชิงบัลลังก์ โดยครั้งนี้เนื้อหาของซีรีส์จะให้ความสนใจกับเรื่องร าวความขัดแย้งภายในตระกูล Targaryen เป็นหลัก ว่าด้วยการแก่งแย่งอำนาจของพี่น้องสายเลือดมังกร ชนวนเหตุเกิดจากการที่ Princess Rhaenyra ถูกวางตัวให้เป็นรัชทายาทผู้สืบทอดบัลลังก์เหล็กต่อจ าก King Viserys I แต่ตามธรรมเนียมดั้งเดิมของ Westeros ผู้หญิงไม่เคยได้มีโอกาสขึ้นครองบัลลังก์เหล็กมาก่อน แม้แต่ในยุคของบิดาเธอก็เช่นกัน แทนที่ Princess Rhaenys หลานสาวคนโตของพระราชาองค์ก่อนที่อายุมากกว่า Viserys จะได้ขึ้นครองราชย์ แต่เนื่องจากเธอเป็นผู้หญิงจึงทำให้สิทธิ์ในการขึ้นค รองบัลลังก์เหล็กตกเป็นของ Viserys แทน ด้วยเหตุนี้เองจึงทำให้ผู้ชายที่มีสิทธิ์ในบัลลังก์พ อๆ กับ Rhaenyra เกิดความไม่พอใจที่จะต้องมาทนเห็นผู้หญิงก้าวขึ้นมาป กครองอาณาจักร จนกลายเป็นสงครามกลางเมืองครั้งใหญ่ที่จะนำพาอาณาจัก รในยุครุ่งเรืองที่สุดลงมาอยู่ในจุดที่ไม่มีใครคาดคิ ด


    Video
    ID : 1
    Format : AVC
    Format/Info : Advanced Video Codec
    Format profile : [email protected]
    Format settings : CABAC / 4 Ref Frames
    Format settings, CABAC : Yes
    Format settings, Reference fra : 4 frames
    Codec ID : V_MPEG4/ISO/AVC
    Duration : 58 min 3 s
    Bit rate mode : Variable
    Bit rate : 3 732 kb/s
    Maximum bit rate : 10 000 kb/s
    Width : 1 920 pixels
    Height : 960 pixels
    Display aspect ratio : 2.000
    Frame rate mode : Constant
    Frame rate : 23.976 (24000/1001) FPS
    Color space : YUV
    Chroma subsampling : 4:2:0
    Bit depth : 8 bits
    Scan type : Progressive
    Bits/(Pixel*Frame) : 0.084
    Stream size : 1.51 GiB (79%)
    Writing library : x264 core 164
    Encoding settings : cabac=1 / ref=4 / deblock=1:0:0 / analyse=0x3:0x133 / me=umh / subme=10 / psy=1 / psy_rd=1.00:0.00 / mixed_ref=1 / me_range=24 / chroma_me=1 / trellis=2 / 8x8dct=1 / cqm=0 / deadzone=21,11 / fast_pskip=1 / chroma_qp_offset=-2 / threads=24 / lookahead_threads=2 / sliced_threads=0 / nr=0 / decimate=1 / interlaced=0 / bluray_compat=0 / stitchable=1 / constrained_intra=0 / bframes=3 / b_pyramid=2 / b_adapt=2 / b_bias=0 / direct=3 / weightb=1 / open_gop=0 / weightp=2 / keyint=96 / keyint_min=49 / scenecut=0 / intra_refresh=0 / rc_lookahead=96 / rc=crf / mbtree=1 / crf=20.0 / qcomp=0.60 / qpmin=0 / qpmax=69 / qpstep=4 / vbv_maxrate=10000 / vbv_bufsize=40000 / crf_max=0.0 / nal_hrd=vbr / filler=0 / ip_ratio=1.40 / aq=1:1.00
    Default : Yes
    Forced : No
    Color range : Limited
    Color primaries : BT.709
    Transfer characteristics : BT.709
    Matrix coefficients : BT.709

    Audio #1
    ID : 2
    Format : AC-3
    Format/Info : Audio Coding 3
    Commercial name : Dolby Digital
    Codec ID : A_AC3
    Duration : 58 min 4 s
    Bit rate mode : Constant
    Bit rate : 320 kb/s
    Channel(s) : 2 channels
    Channel layout : L R
    Sampling rate : 48.0 kHz
    Frame rate : 31.250 FPS (1536 SPF)
    Compression mode : Lossy
    Stream size : 133 MiB (7%)
    Title : [Thai-AC-3]
    Language : Thai
    Service kind : Complete Main
    Default : Yes
    Forced : No

    Audio #2
    ID : 3
    Format : E-AC-3 JOC
    Format/Info : Enhanced AC-3 with Joint Object Coding
    Commercial name : Dolby Digital Plus with Dolby Atmos
    Codec ID : A_EAC3
    Duration : 58 min 3 s
    Bit rate mode : Constant
    Bit rate : 640 kb/s
    Channel(s) : 6 channels
    Channel layout : L R C LFE Ls Rs
    Sampling rate : 48.0 kHz
    Frame rate : 31.250 FPS (1536 SPF)
    Compression mode : Lossy
    Stream size : 266 MiB (14%)
    Title : [English-AC-3 5.1]
    Language : English
    Service kind : Complete Main
    Default : No
    Forced : No
    Complexity index : 16
    Number of dynamic objects : 15
    Bed channel count : 1 channel
    Bed channel configuration : LFE

    Text #1
    ID : 4
    Format : PGS
    Muxing mode : zlib
    Codec ID : S_HDMV/PGS
    Codec ID/Info : Picture based subtitle format used on BDs/HD-DVDs
    Duration : 55 min 33 s
    Bit rate : 140 b/s
    Count of elements : 6
    Stream size : 57.3 KiB (0%)
    Title : [Thai HBO Forced PGS]
    Language : Thai
    Default : Yes
    Forced : No

    Text #2
    ID : 5
    Format : PGS
    Muxing mode : zlib
    Codec ID : S_HDMV/PGS
    Codec ID/Info : Picture based subtitle format used on BDs/HD-DVDs
    Duration : 55 min 33 s
    Bit rate : 49.2 kb/s
    Count of elements : 1224
    Stream size : 19.6 MiB (1%)
    Title : [Thai HBO PGS]
    Language : Thai
    Default : No
    Forced : No

    Text #3
    ID : 6
    Format : UTF-8
    Codec ID : S_TEXT/UTF8
    Codec ID/Info : UTF-8 Plain Text
    Duration : 55 min 33 s
    Bit rate : 0 b/s
    Count of elements : 3
    Stream size : 101 Bytes (0%)
    Title : Thai Forced
    Language : Thai
    Default : No
    Forced : No

    Text #4
    ID : 7
    Format : UTF-8
    Codec ID : S_TEXT/UTF8
    Codec ID/Info : UTF-8 Plain Text
    Duration : 55 min 33 s
    Bit rate : 117 b/s
    Count of elements : 612
    Stream size : 47.9 KiB (0%)
    Title : Thai
    Language : Thai
    Default : No
    Forced : No

    Text #5
    ID : 8
    Format : UTF-8
    Codec ID : S_TEXT/UTF8
    Codec ID/Info : UTF-8 Plain Text
    Duration : 54 min 12 s
    Bit rate : 51 b/s
    Count of elements : 584
    Stream size : 20.3 KiB (0%)
    Title : English
    Language : English
    Default : No
    Forced : No

    Text #6
    ID : 9
    Format : UTF-8
    Codec ID : S_TEXT/UTF8
    Codec ID/Info : UTF-8 Plain Text
    Duration : 57 min 46 s
    Bit rate : 56 b/s
    Count of elements : 797
    Stream size : 24.0 KiB (0%)
    Title : English SDH
    Language : English
    Default : No
    Forced : No

    Menu
    00:00:00.000 : en:Chapter 1
    00:00:06.006 : en:Intro
    00:01:50.903 : en:Chapter 2
    00:12:19.029 : en:Chapter 3
    00:22:12.039 : en:Chapter 4
    00:31:25.466 : en:Chapter 5
    00:40:43.482 : en:Chapter 6
    00:56:50.448 : en:Credits





    House.of.the.Dragon.S02E05.1080p.MAX.WEB-DL.DDP5.1.x264.Modified_By_mxn.mkv
    http://www.filecondo.com/dl.php?f=y68cde1StDmj

    House.of.the.Dragon.S02E05.1080p.HBOGO.WEB-DL.AAC2.0.H.264-MESSI.mkv
    http://www.filecondo.com/dl.php?f=o0b7c71StDli

    ******************************************

    House.of.the.Dragon.S02E04.A.Dance.of.Dragons.1080 p.MAX.WEB-DL.DDP5.1.x264.Modified_By_mxn.mkv
    http://www.filecondo.com/dl.php?f=Q4f7371Sr9KM

    House.of.the.Dragon.S02E04.1080p.HBOGO.WEB-DL.AAC2.0.H.264-MESSI.mkv
    http://www.filecondo.com/dl.php?f=jf39781Sr9JL


    ***********************************************

    House.of.the.Dragon.S02E03.1080p.MAX.WEB-DL.DDP5.1.x264.Modified_By_mxn.mkv
    http://www.filecondo.com/dl.php?f=R6c52b1SodgV

    House.of.the.Dragon.S02E03.1080p.HBOGO.WEB-DL.AAC2.0.H.264-MESSI.mkv
    http://www.filecondo.com/dl.php?f=tfed241SodfT

    **********************************

    House.of.the.Dragon.S02E02.1080p.HBOGO.WEB-DL.AAC2.0.H.264-MESSI.mkv
    http://www.filecondo.com/dl.php?f=gf29d31SmOfJ

    House.of.the.Dragon.S02E02.1080p.MAX.WEB-DL.DDP5.1.x264.Modified_By_mxn.mkv
    http://www.filecondo.com/dl.php?f=b3a9171SlH2Q

    House.of.the.Dragon.S02E02.1080p.MAX.WEB-DL.DDP5.1.Atmos.H.264.MULTISUB-BAPHOMET.mkv
    http://www.filecondo.com/dl.php?f=u69e331SlH1S


    *******************************

    House.of.the.Dragon.S02E01.A.Son.for.a.Son.1080p.M AX.WEB-DL.DDP5.1.x264.Modified_By_mxn.mkv
    http://www.filecondo.com/dl.php?f=lac93b1Sj9ss

    House.of.the.Dragon.S02E01.A.Son.for.a.Son.1080p.M AX.WEB-DL.DDP5.1.Atmos.H.264.MULTISUB-BAPHOMET.mkv
    http://www.filecondo.com/dl.php?f=79fd041Sj9rt

    House.of.the.Dragon.S02E01.A.Son.for.a.Son.1080p.H BOGO.WEB-DL.AAC2.0.H.264-MESSI.mkv
    http://www.filecondo.com/dl.php?f=B676281Sj9qt

    House.of.the.Dragon.S02E01.A.Son.for.a.Son.1080p.H BOGO.WEB-DL.AAC2.0.H.264-BAPHOMET.mkv
    http://www.filecondo.com/dl.php?f=aef37f1Sj9pv

  2. The Following 4 Users Say Thank You to Duckload.us For This Useful Post:

    mta28 (06-22-2024), neorun (07-05-2024), sawara (07-10-2024), Wesker_TOT (07-03-2024)

  3. #2
    Member
    สมัครเมื่อ
    May 2012
    ที่อยู่
    Thailand
    โพสต์
    81
    Thanks
    713
    Thanked 0 Times in 0 Posts
    Thank you so much.

  4. #3
    Administrators รูปส่วนตัว Duckload.us
    สมัครเมื่อ
    Dec 2010
    โพสต์
    152,672
    Thanks
    7
    Thanked 159,864 Times in 69,928 Posts
    House of the Dragon (2024) Season 2 Ep.1 -2

  5. #4
    Junior Member
    สมัครเมื่อ
    Dec 2016
    ที่อยู่
    Usa
    โพสต์
    1
    Thanks
    0
    Thanked 0 Times in 0 Posts

    Search Pretty Girls in your town for night


  6. #5
    Senior Member
    สมัครเมื่อ
    May 2014
    โพสต์
    471
    Thanks
    0
    Thanked 0 Times in 0 Posts
    รอ ep.3 อย่างใจจดจ่อฮะ ขอบคุณครับท่าน

  7. #6
    Senior Member
    สมัครเมื่อ
    Dec 2013
    โพสต์
    6,362
    Thanks
    8,344
    Thanked 0 Times in 0 Posts
    ขอบคุณครับ...

  8. #7
    Senior Member
    สมัครเมื่อ
    May 2014
    โพสต์
    471
    Thanks
    0
    Thanked 0 Times in 0 Posts
    Ep.4 รอนะครับท่าน จุ๊บๆ

  9. #8
    Administrators รูปส่วนตัว Duckload.us
    สมัครเมื่อ
    Dec 2010
    โพสต์
    152,672
    Thanks
    7
    Thanked 159,864 Times in 69,928 Posts
    [HBO] House of the Dragon (2024) Season 2 Ep.1 -4

  10. #9
    Administrators รูปส่วนตัว Duckload.us
    สมัครเมื่อ
    Dec 2010
    โพสต์
    152,672
    Thanks
    7
    Thanked 159,864 Times in 69,928 Posts
    House of the Dragon (2024) Season 2 Ep.1 -5

+ ตอบกลับกระทู้

ข้อมูลกระทู้

Users Browsing this Thread

ในขณะนี้มี 1 ท่านดูกระทู้อยู่. (0 สมาชิกและ 1 ผู้เยี่ยมชม)

     

กฎการโพสต์ข้อความ

  • ท่าน ไม่สามารถ ตั้งกระทู้ใหม่ได้
  • ท่าน ไม่สามารถ ตอบกระทู้ได้
  • ท่าน ไม่สามารถ แนบไฟล์ได้
  • ท่าน ไม่สามารถ แก้ไขข้อความโพสต์ได้
  • BB code สถานะ เปิด
  • Smilies สถานะ เปิด
  • [IMG] สถานะ เปิด
  • HTML สถานะ ปิด