+ ตอบกลับกระทู้
สรุปผลการค้นหา 1 ถึง 3 จากทั้งหมด 3
  1. #1
    Administrators รูปส่วนตัว Duckload.us
    สมัครเมื่อ
    Dec 2010
    โพสต์
    152,672
    Thanks
    7
    Thanked 159,864 Times in 69,928 Posts

    Lightbulb [ฝรั่ง]-The Watchers เดอะวอทเชอร์ส [พากย์ไทยโรง-อังกฤษ][ซับอังกฤษ]-WEB-DL.H.264.1080p. [Master]-[พากย์ไทยโรง]



    เรื่องย่อ
    เรื่องราวของ มิน่า ศิลปินสาวอายุ 28 ปี ผู้ติดอยู่ในป่าอันกว้างใหญ่ไพศาลทางตะวันตกในไอร์แล นด์ แต่เมื่อเธอพบเข้ากับที่หลบภัยพร้อมกับคนแปลกหน้าทั้ ง 3 คน ก็ต้องพบเข้ากับเรื่องราวอันแสนประหลาดที่ดูเหมือนว่ าพวกเขานั้นกำลังถูกสิ่งลี้ลับจับจ้องและตามล่าในทุก ๆ คืน คุณไม่มีทางเห็นมัน แต่มันจะเห็นคุณทุกฝีก้าว



    General
    Unique ID : 81599484896148823932824808073911317135 (0x3D637D3854F7E9FDA6A391A2EDCBB28F)
    Complete name : D:โหลดบืทThe.Watchers.2024.1080p.WEB.H264-VoraciousFreshBustardOfEconomy[TGx]The.Watchers.2024.1080p.WEBDL.H264.THR.rezero23578 9.mkv
    Format : Matroska
    Format version : Version 4
    File size : 5.49 GiB
    Duration : 1 h 41 min
    Overall bit rate mode : Variable
    Overall bit rate : 7 732 kb/s
    Frame rate : 23.976 FPS
    Movie name : The.Watchers.2024.1080p.WEBDL.H264.THR.rezero23578 9
    Encoded date : 2024-06-28 10:21:32 UTC
    Writing application : mkvmerge v83.0 ('Circle Of Friends') 64-bit
    Writing library : libebml v1.4.5 + libmatroska v1.7.1
    Cover : Yes
    Attachments : cover.jpg

    Video
    ID : 1
    Format : AVC
    Format/Info : Advanced Video Codec
    Format profile : High@L4
    Format settings : CABAC / 4 Ref Frames
    Format settings, CABAC : Yes
    Format settings, Reference fra : 4 frames
    Format settings, Slice count : 8 slices per frame
    Codec ID : V_MPEG4/ISO/AVC
    Duration : 1 h 41 min
    Bit rate : 6 580 kb/s
    Width : 1 918 pixels
    Height : 1 036 pixels
    Display aspect ratio : 1.85:1
    Frame rate mode : Constant
    Frame rate : 23.976 (24000/1001) FPS
    Original frame rate : 47.952 (48000/1001) FPS
    Color space : YUV
    Chroma subsampling : 4:2:0
    Bit depth : 8 bits
    Scan type : Progressive
    Bits/(Pixel*Frame) : 0.138
    Stream size : 4.67 GiB (85%)
    Language : English
    Default : Yes
    Forced : No
    Color range : Limited
    Color primaries : BT.709
    Transfer characteristics : BT.709
    Matrix coefficients : BT.709

    Audio #1
    ID : 2
    Format : FLAC
    Format/Info : Free Lossless Audio Codec
    Codec ID : A_FLAC
    Duration : 1 h 41 min
    Bit rate mode : Variable
    Bit rate : 381 kb/s
    Channel(s) : 2 channels
    Channel layout : L R
    Sampling rate : 48.0 kHz
    Frame rate : 11.719 FPS (4096 SPF)
    Bit depth : 16 bits
    Compression mode : Lossless
    Stream size : 277 MiB (5%)
    Title : Thai(Rong)By.rezero235789
    Writing library : libFLAC 20080709 (2008-07-09)
    Language : Thai
    Default : Yes
    Forced : Yes
    MD5 of the unencoded content : 26DEC025CCE7DE81E0014C15DBA03BBD

    Audio #2
    ID : 3
    Format : E-AC-3 JOC
    Format/Info : Enhanced AC-3 with Joint Object Coding
    Commercial name : Dolby Digital Plus with Dolby Atmos
    Codec ID : A_EAC3
    Duration : 1 h 41 min
    Bit rate mode : Constant
    Bit rate : 768 kb/s
    Channel(s) : 6 channels
    Channel layout : L R C LFE Ls Rs
    Sampling rate : 48.0 kHz
    Frame rate : 31.250 FPS (1536 SPF)
    Compression mode : Lossy
    Stream size : 559 MiB (10%)
    Title : English
    Language : English
    Service kind : Complete Main
    Default : No
    Forced : No
    Complexity index : 16
    Number of dynamic objects : 15
    Bed channel count : 1 channel
    Bed channel configuration : LFE

    Text
    ID : 4
    Format : UTF-8
    Codec ID : S_TEXT/UTF8
    Codec ID/Info : UTF-8 Plain Text
    Duration : 1 h 34 min
    Bit rate : 56 b/s
    Frame rate : 0.246 FPS
    Count of elements : 1392
    Stream size : 39.2 KiB (0%)
    Title : English
    Language : English
    Default : No
    Forced : No

    The.Watchers.2024.1080p.WEBDL.H264.THR.rezero23578 9.mkv
    http://www.filecondo.com/dl.php?f=5138a01Snx4n

    5.9 GB

  2. The Following User Says Thank You to Duckload.us For This Useful Post:

    Wesker_TOT (06-30-2024)

  3. #2
    Senior Member
    สมัครเมื่อ
    Dec 2013
    โพสต์
    6,362
    Thanks
    8,344
    Thanked 0 Times in 0 Posts
    ขอบคุณครับ...

  4. #3
    Senior Member
    สมัครเมื่อ
    Jul 2013
    โพสต์
    3,768
    Thanks
    0
    Thanked 0 Times in 0 Posts
    ขอบคุณครับ

+ ตอบกลับกระทู้

ข้อมูลกระทู้

Users Browsing this Thread

ในขณะนี้มี 1 ท่านดูกระทู้อยู่. (0 สมาชิกและ 1 ผู้เยี่ยมชม)

     

กฎการโพสต์ข้อความ

  • ท่าน ไม่สามารถ ตั้งกระทู้ใหม่ได้
  • ท่าน ไม่สามารถ ตอบกระทู้ได้
  • ท่าน ไม่สามารถ แนบไฟล์ได้
  • ท่าน ไม่สามารถ แก้ไขข้อความโพสต์ได้
  • BB code สถานะ เปิด
  • Smilies สถานะ เปิด
  • [IMG] สถานะ เปิด
  • HTML สถานะ ปิด