+ ตอบกลับกระทู้
สรุปผลการค้นหา 1 ถึง 2 จากทั้งหมด 2
  1. #1
    Administrators รูปส่วนตัว Duckload.us
    สมัครเมื่อ
    Dec 2010
    โพสต์
    152,672
    Thanks
    7
    Thanked 159,864 Times in 69,928 Posts

    Lightbulb [ฝรั่ง]-[AI VFI]-[48FPS] Furiosa A Mad Max Saga (2024) ฟูริโอซ่า มหากาพย์ แมด แม็กซ์ [เสียง : ไทย DD+ 5.1/อังกฤษ DD+ Atmos 5.1]-[บรรยาย : ไทย PGS/อังกฤษ SRT]-Encode.H.265.1080p. [Modified]-[พากย์ไทย บรรยายไทย]



    Quote:
    เมื่อโลกล่มสลาย สาวน้อย ฟิรูโอซ่า ถูกแย่งชิงจากกลุ่มแมนนี มาเธอร์ส ผู้รักสันติ และตกไปอยู่ในมือของ ไบค์เกอร์ ฮอร์ด ผู้ยิ่งใหญ่ ที่นำโดย วอร์ลอร์ด เดเมนตัส พวกเขากวาดล้างดินแดนรกร้างและพบเข้ากับป้อมปราการซึ ่งมี อิมมอร์ทัล โจ เป็นประธาน ในขณะที่ ไทรแอนท์ ทั้งสองทำสงครามเพื่อแย่งชิงอำนาจ ฟูริโอซ่าจะต้องเอาชีวิตรอดจากการทดลองมากมาย ในขณะเดียวกันเธอก็ต้องหาทางกลับบ้านให้ได้

    ประเภท แอคชัน / ผจญภัย / ระทึกขวัญ
    นำแสดงโดย อันยา เทย์เลอร์-จอย, คริส เฮมสเวิร์ธ, ทอม เบิร์ก
    กำกับโดย จอร์จ มิลเลอร์
    กำหนดฉาย 22 พฤษภาคม 2024
    ความยาว 168 นาที

    ***ชี้แจง+คำเตือน***
    1. ใช้ VideoProc Converter AI เพิ่ม FPS เพื่อความลื่นไหล เหมาะสำหรับคนชอบดูแบบลื่นๆ
    2. แนะนำให้ดูในจอเล็กอย่าง Notebook, Tablet หรือ PC จอเล็กเท่านั้น (หน้าจอ Refresh Rate สูงๆ) จอใหญ่อาจไม่เห็นผล + ทีวีจอใหญ่ในปัจจุบันส่วนใหญ่ก็มีโหมดเพิ่ม FPS ในตัวอยู่แล้ว
    3. แนะนำโปรแกรม PotPlayer (PC) หรือ VLC (iOS, Android) ผมใช้ดูเองด้วย ไม่มีปัญหา
    4. ไฟล์อาจมี Artifact หรือกระตุกบางฉาก ผิดพลาดประการใดต้องขออภัยด้วยครับ

    CREDIT : ขอขอบคุณไฟล์ต้นฉบับจากคุณ Free.For.ALL ครับ https://bearbit.co/details.php?id=20...shinfo=1941136





    Quote:
    Furiosa A Mad Max Saga (2024) ฟูริโอซ่า มหากาพย์ แมด แม็กซ์.1080p_48FPS by Noctis.IX.mkv
    Format : Matroska
    Format version : Version 4
    File size : 6.17 GiB
    Duration : 2 h 28 min
    Overall bit rate : 5 958 kb/s
    Frame rate : 47.952 FPS
    Movie name : Furiosa.A.Mad.Max.Saga.2024.1080p.WEB-DL.DDP5.1.Atmos.H.264-FFA_48FPS
    Encoded date : 2024-06-30 06:06:26 UTC
    Writing application : mkvmerge v85.0 ('Shame For You') 64-bit
    Writing library : libebml v1.4.5 + libmatroska v1.7.1

    Video
    ID : 1
    Format : HEVC
    Format/Info : High Efficiency Video Coding
    Format profile : [email protected]@Main
    Codec ID : V_MPEGH/ISO/HEVC
    Duration : 2 h 28 min
    Bit rate : 4 795 kb/s
    Width : 1 920 pixels
    Height : 1 080 pixels
    Display aspect ratio : 16:9
    Frame rate mode : Constant
    Frame rate : 47.952 (47952/1000) FPS
    Color space : YUV
    Chroma subsampling : 4:2:0
    Bit depth : 8 bits
    Bits/(Pixel*Frame) : 0.048
    Stream size : 4.96 GiB (80%)
    Language : English
    Default : Yes
    Forced : No
    Color range : Limited

    Audio #1
    ID : 2
    Format : E-AC-3
    Format/Info : Enhanced AC-3
    Commercial name : Dolby Digital Plus
    Codec ID : A_EAC3
    Duration : 2 h 28 min
    Bit rate mode : Constant
    Bit rate : 384 kb/s
    Channel(s) : 6 channels
    Channel layout : L R C LFE Ls Rs
    Sampling rate : 48.0 kHz
    Frame rate : 31.250 FPS (1536 SPF)
    Compression mode : Lossy
    Delay relative to video : 950 ms
    Stream size : 407 MiB (6%)
    Title : TH 5.1 DDP - FFA
    Language : Thai
    Service kind : Complete Main
    Default : Yes
    Forced : No
    Dialog Normalization : -13 dB
    compr : 0.53 dB
    dialnorm_Average : -13 dB
    dialnorm_Minimum : -13 dB
    dialnorm_Maximum : -13 dB

    Audio #2
    ID : 3
    Format : E-AC-3 JOC
    Format/Info : Enhanced AC-3 with Joint Object Coding
    Commercial name : Dolby Digital Plus with Dolby Atmos
    Codec ID : A_EAC3
    Duration : 2 h 28 min
    Bit rate mode : Constant
    Bit rate : 768 kb/s
    Channel(s) : 6 channels
    Channel layout : L R C LFE Ls Rs
    Sampling rate : 48.0 kHz
    Frame rate : 31.250 FPS (1536 SPF)
    Compression mode : Lossy
    Delay relative to video : 14 ms
    Stream size : 814 MiB (13%)
    Title : EN 5.1 DDP Atmos
    Language : English
    Service kind : Complete Main
    Default : No
    Forced : No
    Complexity index : 16
    Number of dynamic objects : 15
    Bed channel count : 1 channel
    Bed channel configuration : LFE
    Dialog Normalization : -27 dB
    compr : 0.53 dB
    dialnorm_Average : -27 dB
    dialnorm_Minimum : -27 dB
    dialnorm_Maximum : -27 dB

    Text #1
    ID : 4
    Format : PGS
    Muxing mode : zlib
    Codec ID : S_HDMV/PGS
    Codec ID/Info : Picture based subtitle format used on BDs/HD-DVDs
    Duration : 2 h 17 min
    Bit rate : 17.3 kb/s
    Frame rate : 0.235 FPS
    Count of elements : 1940
    Stream size : 17.0 MiB (0%)
    Title : TH
    Language : Thai
    Default : Yes
    Forced : No

    Text #2
    ID : 5
    Format : UTF-8
    Codec ID : S_TEXT/UTF8
    Codec ID/Info : UTF-8 Plain Text
    Duration : 2 h 16 min
    Bit rate : 28 b/s
    Frame rate : 0.128 FPS
    Count of elements : 1050
    Stream size : 28.1 KiB (0%)
    Language : English
    Default : No
    Forced : No

    Text #3
    ID : 6
    Format : UTF-8
    Codec ID : S_TEXT/UTF8
    Codec ID/Info : UTF-8 Plain Text
    Duration : 2 h 17 min
    Bit rate : 36 b/s
    Frame rate : 0.170 FPS
    Count of elements : 1401
    Stream size : 36.7 KiB (0%)
    Title : SDH
    Language : English
    Default : No
    Forced : No



    Furiosa_A_Mad_Max_Saga_(2024)_ฟูริโอซ่า_มหากาพย์_แ มด_แม็กซ์.1080p_48FPS_by_Noctis.IX.mkv
    http://www.filecondo.com/dl.php?f=mbf9b31SodPY

    6.62 GB

  2. #2
    Senior Member
    สมัครเมื่อ
    Jul 2013
    โพสต์
    3,768
    Thanks
    0
    Thanked 0 Times in 0 Posts
    ขอบคุณครับ

+ ตอบกลับกระทู้

ข้อมูลกระทู้

Users Browsing this Thread

ในขณะนี้มี 1 ท่านดูกระทู้อยู่. (0 สมาชิกและ 1 ผู้เยี่ยมชม)

     

กฎการโพสต์ข้อความ

  • ท่าน ไม่สามารถ ตั้งกระทู้ใหม่ได้
  • ท่าน ไม่สามารถ ตอบกระทู้ได้
  • ท่าน ไม่สามารถ แนบไฟล์ได้
  • ท่าน ไม่สามารถ แก้ไขข้อความโพสต์ได้
  • BB code สถานะ เปิด
  • Smilies สถานะ เปิด
  • [IMG] สถานะ เปิด
  • HTML สถานะ ปิด