แจ็ค ไรอัน นักวิเคราะห์ของซีไอเอและเจมส์ เกรียร์ หัวหน้าคนใหม่ของเขาติดตามรูปแบบของธุรกรรมทางการเงิ นที่น่าสงสัย ซึ่งทำให้พวกเขาต้องเปิดเกมไล่ล่าสุดอันตรายไปทั่วยุ โรปและตะวันออกกลางในขณะที่หัวหน้าผู้ก่อการร้ายกำลั งเตรียมโจมตีสหรัฐและพันธมิตร



General
Complete name : Tom.Clancys.Jack.Ryan.S01E01.Pilot.mkv
Format : Matroska
Format version : Version 4
File size : 19.5 GiB
Duration : 1 h 6 min
Overall bit rate mode : Variable
Overall bit rate : 42.0 Mb/s
Encoded date : UTC 2024-06-28 15:46:37
Writing application : mkvmerge v81.0 ('Milliontown') 64-bit
Writing library : libebml v1.4.4 + libmatroska v1.7.1
Attachments : poster.jpg

Video
ID : 1
ID in the original source medium : 4113 (0x1011)
Format : HEVC
Format/Info : High Efficiency Video Coding
Format profile : Main [email protected]@High
HDR format : SMPTE ST 2086, HDR10 compatible
Codec ID : V_MPEGH/ISO/HEVC
Duration : 1 h 4 min
Bit rate : 38.0 Mb/s
Width : 3 840 pixels
Height : 2 160 pixels
Display aspect ratio : 16:9
Frame rate mode : Constant
Frame rate : 23.976 (24000/1001) FPS
Color space : YUV
Chroma subsampling : 4:2:0 (Type 2)
Bit depth : 10 bits
Bits/(Pixel*Frame) : 0.191
Stream size : 17.2 GiB (88%)
Language : English
Default : No
Forced : No
Color range : Limited
Color primaries : BT.2020
Transfer characteristics : PQ
Matrix coefficients : BT.2020 non-constant
Mastering display color primaries : BT.2020
Mastering display luminance : min: 0.0000 cd/m2, max: 1000 cd/m2
Maximum Content Light Level : 1001 cd/m2
Maximum Frame-Average Light Level : 982 cd/m2
Original source medium : Blu-ray

Audio #1
ID : 2
Format : E-AC-3
Format/Info : Enhanced AC-3
Commercial name : Dolby Digital Plus
Codec ID : A_EAC3
Duration : 1 h 6 min
Bit rate mode : Constant
Bit rate : 640 kb/s
Channel(s) : 6 channels
Channel layout : L R C LFE Ls Rs
Sampling rate : 48.0 kHz
Frame rate : 31.250 FPS (1536 SPF)
Compression mode : Lossy
Stream size : 305 MiB (2%)
Title : DDP 5.1
Language : Thai
Service kind : Complete Main
Default : Yes
Forced : No

Audio #2
ID : 3
Format : MLP FBA 16-ch
Format/Info : Meridian Lossless Packing FBA with 16-channel presentation
Commercial name : Dolby TrueHD with Dolby Atmos
Codec ID : A_TRUEHD
Duration : 1 h 4 min
Bit rate mode : Variable
Bit rate : 3 714 kb/s
Maximum bit rate : 6 183 kb/s
Channel(s) : 8 channels
Channel layout : L R C LFE Ls Rs Lb Rb
Sampling rate : 48.0 kHz
Frame rate : 1 200.000 FPS (40 SPF)
Compression mode : Lossless
Stream size : 1.69 GiB (9%)
Title : TrueHD Atmos 7.1
Language : English
Default : No
Forced : No
Number of dynamic objects : 11
Bed channel count : 1 channel
Bed channel configuration : LFE

Audio #3
ID : 4
Format : AC-3
Format/Info : Audio Coding 3
Commercial name : Dolby Digital
Format settings : Dolby Surround EX
Codec ID : A_AC3
Duration : 1 h 4 min
Bit rate mode : Constant
Bit rate : 640 kb/s
Channel(s) : 6 channels
Channel layout : L R C LFE Ls Rs
Sampling rate : 48.0 kHz
Frame rate : 31.250 FPS (1536 SPF)
Compression mode : Lossy
Stream size : 297 MiB (1%)
Title : DD 5.1 EX
Language : English
Service kind : Complete Main
Default : No
Forced : No

Text #1
ID : 5
Format : PGS
Muxing mode : zlib
Codec ID : S_HDMV/PGS
Codec ID/Info : Picture based subtitle format used on BDs/HD-DVDs
Duration : 56 min 37 s
Bit rate : 1 815 b/s
Frame rate : 0.034 FPS
Count of elements : 114
Stream size : 753 KiB (0%)
Title : Forced
Language : Thai
Default : Yes
Forced : Yes

Text #2
ID : 6
Format : PGS
Muxing mode : zlib
Codec ID : S_HDMV/PGS
Codec ID/Info : Picture based subtitle format used on BDs/HD-DVDs
Duration : 1 h 1 min
Bit rate : 19.9 kb/s
Frame rate : 0.289 FPS
Count of elements : 1060
Stream size : 8.68 MiB (0%)
Title : PGS
Language : Thai
Default : No
Forced : No

Text #3
ID : 7
Format : PGS
Muxing mode : zlib
Codec ID : S_HDMV/PGS
Codec ID/Info : Picture based subtitle format used on BDs/HD-DVDs
Duration : 1 h 1 min
Bit rate : 20.5 kb/s
Frame rate : 0.289 FPS
Count of elements : 1060
Stream size : 8.94 MiB (0%)
Title : PGS
Language : Thai
Default : No
Forced : No

Text #4
ID : 8
Format : UTF-8
Codec ID : S_TEXT/UTF8
Codec ID/Info : UTF-8 Plain Text
Duration : 1 h 1 min
Bit rate : 88 b/s
Frame rate : 0.145 FPS
Count of elements : 530
Stream size : 39.6 KiB (0%)
Title : SRT
Language : Thai
Default : No
Forced : No

Text #5
ID : 9
ID in the original source medium : 4768 (0x12A0)
Format : PGS
Muxing mode : zlib
Codec ID : S_HDMV/PGS
Codec ID/Info : Picture based subtitle format used on BDs/HD-DVDs
Duration : 56 min 29 s
Bit rate : 24.0 kb/s
Frame rate : 0.323 FPS
Count of elements : 1094
Stream size : 9.69 MiB (0%)
Title : PGS
Language : English
Default : No
Forced : No
Original source medium : Blu-ray








Tom.Clancys.Jack.Ryan.S01E08.Inshallah.mkv
http://www.filecondo.com/dl.php?f=o818f41SnNDs

Tom.Clancys.Jack.Ryan.S01E07.The.Boy.mkv
http://www.filecondo.com/dl.php?f=Q1a6b41SnNzK

Tom.Clancys.Jack.Ryan.S01E06.Sources.and.Methods.m kv
http://www.filecondo.com/dl.php?f=O5c8e51SnNwg

Tom.Clancys.Jack.Ryan.S01E05.End.of.Honor.mkv
http://www.filecondo.com/dl.php?f=E519001SnNqY

Tom.Clancys.Jack.Ryan.S01E04.The.Wolf.mkv
http://www.filecondo.com/dl.php?f=w68ff01SnNn4

Tom.Clancys.Jack.Ryan.S01E03.Black.22.mkv
http://www.filecondo.com/dl.php?f=i333551SnNhU

Tom.Clancys.Jack.Ryan.S01E02.French.Connection.mkv
http://www.filecondo.com/dl.php?f=Hdbbfc1SnNcR

Tom.Clancys.Jack.Ryan.S01E01.Pilot.mkv
http://www.filecondo.com/dl.php?f=I6c1bc1SnN6y