+ ตอบกลับกระทู้
สรุปผลการค้นหา 1 ถึง 2 จากทั้งหมด 2
  1. #1
    Administrators รูปส่วนตัว Duckload.us
    สมัครเมื่อ
    Dec 2010
    โพสต์
    152,672
    Thanks
    7
    Thanked 159,864 Times in 69,928 Posts

    Lightbulb [จีน]-[Monomax] Five Kings of Thieves (2024) ตำนานราชันปัญจธาตุ-WEB-DL.H.264.1080p. [Master]-[พากย์ไทย/จีน บรรยายไทย]



    เรื่องย่อ ตำนานราชันปัญจธาตุ Five Kings of Thieves
    “Five Kings of Thieves ตำนานราชันปัญจธาตุ” ซีรีส์จีนแนวแอคชั่น-แฟนตาซี ดัดแปลงมาจากนิยาย“ปัญจมหาโจร” (Wu Da Zei Wang แต่งโดย จางไห่ฟาน) บอกเล่าเรื่องราวการหายไปของกระถางเทพปัญจธาตุ ที่มีห้าตระกูลปัญจธาตุเป็นผู้ดูแล ตำนานกล่าวว่าภายในกระถางเทพปัญจธาตุได้ผนึกพลังอันล ึกลับ หากใครได้ไปก็จะกลายเป็นผู้ยิ่งใหญ่เหนือยุทธภพ 20 ปี ผ่านไป จู่ ๆ ก็มีข่าวคราวเกี่ยวกับเทพีหยก เบาะแสชิ้นสำคัญในการตามหากระถางเทพปัญจธาตุ ทำให้บรรดาผู้มีอำนาจต่างเริ่มเคลื่อนไหว รวมไปถึง เฮยซานเปียน (รับบทโดย หวังซิ่วจู๋) หญิงงามปริศนาผู้มากไปด้วยวรยุทธ์ เธอได้จับตัวพ่อบุญธรรมของ หัวเสี่ยวเสีย (รับบทโดย หวังต้าลู่) โจรหนุ่มฝีมือดี เพื่อให้เขาแอบเข้าไปขโมยของในจวนสกุลจาง ด้วยเหตุนี้หัวเสี่ยวเสียจึงได้เข้าไปพัวพันกับการตา มหากระถางเทพปัญจธาตุ และเหล่ายอดฝีมือจากตระกูลปัญจธาตุ รวมถึงได้พบกับ สุ่ยเยาเอ๋อ (รับบทโดย เหรินหมิ่น) ลูกสาวประมุขธาตุน้ำที่ร่วมมือกันต่อสู้ และผจญภัยเสี่ยงอันตรายไปด้วยกัน

    Video
    ID : 1
    Format : AVC
    Format/Info : Advanced Video Codec
    Format profile : High@L4
    Format settings : CABAC / 4 Ref Frames
    Format settings, CABAC : Yes
    Format settings, Reference frames : 4 frames
    Codec ID : V_MPEG4/ISO/AVC
    Duration : 37 min 49 s
    Bit rate : 4 000 kb/s
    Width : 1 920 pixels
    Height : 1 080 pixels
    Display aspect ratio : 16:9
    Frame rate mode : Constant
    Frame rate : 25.000 FPS
    Color space : YUV
    Chroma subsampling : 4:2:0
    Bit depth : 8 bits
    Scan type : Progressive
    Bits/(Pixel*Frame) : 0.077
    Stream size : 1.08 GiB (94%)
    Writing library : x264 core 148
    Encoding settings : cabac=1 / ref=3 / deblock=1:0:0 / analyse=0x3:0x113 / me=hex / subme=7 / psy=1 / psy_rd=1.00:0.00 / mixed_ref=1 / me_range=16 / chroma_me=1 / trellis=1 / 8x8dct=1 / cqm=0 / deadzone=21,11 / fast_pskip=1 / chroma_qp_offset=-2 / threads=18 / lookahead_threads=3 / sliced_threads=0 / nr=0 / decimate=1 / interlaced=0 / bluray_compat=0 / constrained_intra=0 / bframes=3 / b_pyramid=2 / b_adapt=1 / b_bias=0 / direct=1 / weightb=1 / open_gop=0 / weightp=2 / keyint=240 / keyint_min=121 / scenecut=40 / intra_refresh=0 / rc_lookahead=40 / rc=abr / mbtree=1 / bitrate=4000 / ratetol=1.0 / qcomp=0.60 / qpmin=0 / qpmax=69 / qpstep=4 / ip_ratio=1.40 / aq=1:1.00
    Default : Yes
    Forced : No

    Audio #1
    ID : 2
    Format : AAC LC
    Format/Info : Advanced Audio Codec Low Complexity
    Codec ID : A_AAC-2
    Duration : 37 min 49 s
    Bit rate : 128 kb/s
    Channel(s) : 2 channels
    Channel layout : L R
    Sampling rate : 48.0 kHz
    Frame rate : 46.875 FPS (1024 SPF)
    Compression mode : Lossy
    Stream size : 34.6 MiB (3%)
    Title : Thai
    Language : Thai
    Default : Yes
    Forced : No

    Audio #2
    ID : 3
    Format : AAC LC
    Format/Info : Advanced Audio Codec Low Complexity
    Codec ID : A_AAC-2
    Duration : 37 min 49 s
    Bit rate : 128 kb/s
    Channel(s) : 2 channels
    Channel layout : L R
    Sampling rate : 48.0 kHz
    Frame rate : 46.875 FPS (1024 SPF)
    Compression mode : Lossy
    Stream size : 34.6 MiB (3%)
    Title : 中 文
    Language : Chinese
    Default : No
    Forced : No

    Text
    ID : 4
    Format : UTF-8
    Codec ID : S_TEXT/UTF8
    Codec ID/Info : UTF-8 Plain Text
    Duration : 33 min 43 s
    Bit rate : 138 b/s
    Frame rate : 0.282 FPS
    Count of elements : 571
    Stream size : 34.2 KiB (0%)
    Language : Thai
    Default : Yes
    Forced : No



    ตำนานราชันปัญจธาตุ_Five_Kings_of_Thieves_-_EP12.mkv
    http://www.filecondo.com/dl.php?f=xeb7c81SpkZN

    ตำนานราชันปัญจธาตุ_Five_Kings_of_Thieves_-_EP11.mkv
    http://www.filecondo.com/dl.php?f=te5ee51SpkYO

    ตำนานราชันปัญจธาตุ_Five_Kings_of_Thieves_-_EP10.mkv
    http://www.filecondo.com/dl.php?f=Jf609d1SpkXQ

    ตำนานราชันปัญจธาตุ_Five_Kings_of_Thieves_-_EP09.mkv
    http://www.filecondo.com/dl.php?f=Ebceb01SpkWS

    ตำนานราชันปัญจธาตุ_Five_Kings_of_Thieves_-_EP08.mkv
    http://www.filecondo.com/dl.php?f=pcf9791SpkVU

    ตำนานราชันปัญจธาตุ_Five_Kings_of_Thieves_-_EP07.mkv
    http://www.filecondo.com/dl.php?f=re01e31SpkUW

    ตำนานราชันปัญจธาตุ_Five_Kings_of_Thieves_-_EP06.mkv
    http://www.filecondo.com/dl.php?f=5fa52a1SpkTX

    ตำนานราชันปัญจธาตุ_Five_Kings_of_Thieves_-_EP05.mkv
    http://www.filecondo.com/dl.php?f=s26cb71SpkSZ

    ตำนานราชันปัญจธาตุ_Five_Kings_of_Thieves_-_EP04.mkv
    http://www.filecondo.com/dl.php?f=B05ab41SpkS1

    ตำนานราชันปัญจธาตุ_Five_Kings_of_Thieves_-_EP03.mkv
    http://www.filecondo.com/dl.php?f=uc84471SpkR4

    ตำนานราชันปัญจธาตุ_Five_Kings_of_Thieves_-_EP02.mkv
    http://www.filecondo.com/dl.php?f=Beba7c1SpkQ5

    ตำนานราชันปัญจธาตุ_Five_Kings_of_Thieves_-_EP01.mkv
    http://www.filecondo.com/dl.php?f=2230e01SpkP7

  2. The Following User Says Thank You to Duckload.us For This Useful Post:

    Nam1499 (07-10-2024)

  3. #2
    Senior Member
    สมัครเมื่อ
    Feb 2024
    โพสต์
    453
    Thanks
    415
    Thanked 0 Times in 0 Posts
    ข อ บ คุ ณ ม า ก ค่ ะ

+ ตอบกลับกระทู้

ข้อมูลกระทู้

Users Browsing this Thread

ในขณะนี้มี 1 ท่านดูกระทู้อยู่. (0 สมาชิกและ 1 ผู้เยี่ยมชม)

     

กฎการโพสต์ข้อความ

  • ท่าน ไม่สามารถ ตั้งกระทู้ใหม่ได้
  • ท่าน ไม่สามารถ ตอบกระทู้ได้
  • ท่าน ไม่สามารถ แนบไฟล์ได้
  • ท่าน ไม่สามารถ แก้ไขข้อความโพสต์ได้
  • BB code สถานะ เปิด
  • Smilies สถานะ เปิด
  • [IMG] สถานะ เปิด
  • HTML สถานะ ปิด