+ ตอบกลับกระทู้
สรุปผลการค้นหา 1 ถึง 3 จากทั้งหมด 3
  1. #1
    Administrators รูปส่วนตัว Duckload.us
    สมัครเมื่อ
    Dec 2010
    โพสต์
    152,672
    Thanks
    7
    Thanked 159,864 Times in 69,928 Posts

    Lightbulb [ฝรั่ง]-Kingdom of the Planet of the Apes อาณาจักรแห่งพิภพวานร [พากย์ไทยโรง-อังกฤษ][ซับอังกฤษ]-WEB-DL.H.264.1080p. [Master]-[พากย์ไทยโรง]



    เรื่องย่อ
    เรื่องราวเกิดขึ้นในอนาคตหลังยุคการปกครองของซีซาร์ ที่เหล่าวานรกลายเป็นสายพันธุ์ที่ขึ้นมามีอำนาจบนโลก ใบนี้ ต่างจากเหล่ามนุษย์ที่จะต้องแอบหลบซ่อนอาศัยอยู่ในเง ามืด ในขณะที่ทายาทใหม่ของผู้นำเหล่าวานรกำลังพยายามสร้าง อาณาจักร กลับมีวานรนอกรีตที่เลือกจะเดินในเส้นทางที่แตกต่าง กับการตั้งคำถามถึงอดีตทั้งหมดที่เขาเคยได้เรียนรู้ และสิ่งนี้จะเป็นตัวกำหนดอนาคตระหว่างวานรและมนุษย์



    General
    Unique ID : 311038245803354056692655291220781282551 (0xE9FFC98248DD991FBB17018D7E69B4F7)
    Complete name : D:โหลดบืทKingdom.Of.The.Planet.Of.The.Apes.2024.10 80p.WEB.h264-ETHEL[TGx]Kingdom.Of.The.Planet.Of.The.Apes.2024.1080p.WEBDL .H264.THR.rezero235789.mkv
    Format : Matroska
    Format version : Version 4
    File size : 7.73 GiB
    Duration : 2 h 24 min
    Overall bit rate mode : Variable
    Overall bit rate : 7 644 kb/s
    Frame rate : 24.000 FPS
    Movie name : Kingdom.Of.The.Planet.Of.The.Apes.2024.1080p.WEBDL .H264.THR.rezero235789
    Encoded date : 2024-07-09 12:20:39 UTC
    Writing application : mkvmerge v83.0 ('Circle Of Friends') 64-bit
    Writing library : libebml v1.4.5 + libmatroska v1.7.1
    Cover : Yes
    Attachments : cover.jpg

    Video
    ID : 1
    Format : AVC
    Format/Info : Advanced Video Codec
    Format profile : High@L4
    Format settings : CABAC / 5 Ref Frames
    Format settings, CABAC : Yes
    Format settings, Reference fra : 5 frames
    Format settings, Slice count : 8 slices per frame
    Codec ID : V_MPEG4/ISO/AVC
    Duration : 2 h 24 min
    Bit rate : 6 513 kb/s
    Width : 1 918 pixels
    Height : 802 pixels
    Display aspect ratio : 2.39:1
    Frame rate mode : Constant
    Frame rate : 24.000 FPS
    Color space : YUV
    Chroma subsampling : 4:2:0
    Bit depth : 8 bits
    Scan type : Progressive
    Bits/(Pixel*Frame) : 0.176
    Stream size : 6.58 GiB (85%)
    Language : English
    Default : Yes
    Forced : No
    Color range : Limited
    Color primaries : BT.709
    Transfer characteristics : BT.709
    Matrix coefficients : BT.709

    Audio #1
    ID : 2
    Format : FLAC
    Format/Info : Free Lossless Audio Codec
    Codec ID : A_FLAC
    Duration : 2 h 24 min
    Bit rate mode : Variable
    Bit rate : 360 kb/s
    Channel(s) : 2 channels
    Channel layout : L R
    Sampling rate : 48.0 kHz
    Frame rate : 11.719 FPS (4096 SPF)
    Bit depth : 16 bits
    Compression mode : Lossless
    Stream size : 373 MiB (5%)
    Title : Thai(Rong)By.rezero235789
    Writing library : libFLAC 20080709 (2008-07-09)
    Language : Thai
    Default : Yes
    Forced : Yes
    MD5 of the unencoded content : 80FC86B0BB9984C709F25092F4EE3005

    Audio #2
    ID : 3
    Format : E-AC-3 JOC
    Format/Info : Enhanced AC-3 with Joint Object Coding
    Commercial name : Dolby Digital Plus with Dolby Atmos
    Codec ID : A_EAC3
    Duration : 2 h 24 min
    Bit rate mode : Constant
    Bit rate : 768 kb/s
    Channel(s) : 6 channels
    Channel layout : L R C LFE Ls Rs
    Sampling rate : 48.0 kHz
    Frame rate : 31.250 FPS (1536 SPF)
    Compression mode : Lossy
    Stream size : 795 MiB (10%)
    Title : English
    Language : English
    Service kind : Complete Main
    Default : No
    Forced : No
    Complexity index : 16
    Number of dynamic objects : 15
    Bed channel count : 1 channel
    Bed channel configuration : LFE

    Text
    ID : 4
    Format : UTF-8
    Codec ID : S_TEXT/UTF8
    Codec ID/Info : UTF-8 Plain Text
    Duration : 2 h 11 min
    Bit rate : 17 b/s
    Frame rate : 0.118 FPS
    Count of elements : 932
    Stream size : 17.0 KiB (0%)
    Title : English
    Language : English
    Default : No
    Forced : No

    Kingdom.Of.The.Planet.Of.The.Apes.2024.1080p.WEBDL .H264.THR.rezero235789.mkv
    http://www.filecondo.com/dl.php?f=xf6cbe1SrblR

    8.29 GB

  2. The Following 2 Users Say Thank You to Duckload.us For This Useful Post:

    rakterkonne (07-14-2024), Wesker_TOT (07-10-2024)

  3. #2
    Senior Member
    สมัครเมื่อ
    Dec 2013
    โพสต์
    6,362
    Thanks
    8,344
    Thanked 0 Times in 0 Posts
    ขอบคุณครับ...

  4. #3
    Senior Member
    สมัครเมื่อ
    Jul 2013
    โพสต์
    3,768
    Thanks
    0
    Thanked 0 Times in 0 Posts
    ขอบคุรครับ

+ ตอบกลับกระทู้

ข้อมูลกระทู้

Users Browsing this Thread

ในขณะนี้มี 1 ท่านดูกระทู้อยู่. (0 สมาชิกและ 1 ผู้เยี่ยมชม)

     

กฎการโพสต์ข้อความ

  • ท่าน ไม่สามารถ ตั้งกระทู้ใหม่ได้
  • ท่าน ไม่สามารถ ตอบกระทู้ได้
  • ท่าน ไม่สามารถ แนบไฟล์ได้
  • ท่าน ไม่สามารถ แก้ไขข้อความโพสต์ได้
  • BB code สถานะ เปิด
  • Smilies สถานะ เปิด
  • [IMG] สถานะ เปิด
  • HTML สถานะ ปิด