+ ตอบกลับกระทู้
สรุปผลการค้นหา 1 ถึง 4 จากทั้งหมด 4
  1. #1
    Administrators รูปส่วนตัว Duckload.us
    สมัครเมื่อ
    Dec 2010
    โพสต์
    151,817
    Thanks
    7
    Thanked 158,780 Times in 69,420 Posts

    Lightbulb [ฝรั่ง]-[IMDb 7.4]- Cube (1997) : ลูกบาศก์มรณะ-หนังไซไฟสยองขวัญคุณภาพเยี่ยม ภาคแรกและดีที่สุดจากสามภาค DVDRip 720px264 -[เสียง : อังกฤษ][ซับ : ไทย/อังกฤษ]-[Modified]-[Soundtrack บรรยายไทย]


    ชื่อไทย : ลูกบาศก์มรณะ
    ประเภท : Thriller / Sci-Fi / Horror / Mystery
    เรตภาพยนตร์ : R
    ปีที่เข้าฉาย : 1997
    ความยาว : 90 นาที
    เสียง : อังกฤษ
    บรรยาย : ไทย / อังกฤษ

    ข้อมูลไฟล์ :

    Format : Matroska
    Format version : Version 2
    File size : 3.37 GiB
    Duration : 1h 26mn
    Overall bit rate : 5,568 Kbps
    Encoded date : UTC 2012-10-25 18:25:01
    Writing application : mkvmerge v4.9.1 ( Ich will ) built on Jul 11 2011 23:53:15
    Writing library : libebml v1.2.1 + libmatroska v1.1.1

    Video
    ID : 1
    Format : AVC
    Format/Info : Advanced Video Codec
    Format profile : [email protected]
    Format settings, CABAC : Yes
    Format settings, ReFrames : 9 frames
    Muxing mode : Header stripping
    Codec ID : V_MPEG4/ISO/AVC
    Duration : 1h 26mn
    Bit rate : 5,009 Kbps
    Width : 1,280 pixels
    Height : 712 pixels
    Display aspect ratio : 16:9
    Original display aspect ratio : 16:9
    Frame rate : 25.000 fps
    Color space : YUV
    Chroma subsampling : 4:2:0
    Bit depth : 8 bits
    Scan type : Progressive
    Bits/(Pixel*Frame) : 0.220
    Stream size : 3.04 GiB (90%)

    Audio
    ID : 2
    Format : AC-3
    Format/Info : Audio Coding 3
    Mode extension : CM (complete main)
    Muxing mode : Header stripping
    Codec ID : A_AC3
    Duration : 1h 26mn
    Bit rate mode : Constant
    Bit rate : 448 Kbps
    Channel(s) : 6 channels
    Channel positions : Front: L C R, Side: L R, LFE
    Sampling rate : 48.0 KHz
    Bit depth : 16 bits
    Compression mode : Lossy
    Stream size : 278 MiB (8%)
    Language : English

    Text #1
    ID : 3
    Format : UTF-8
    Codec ID : S_TEXT/UTF8
    Codec ID/Info : UTF-8 Plain Text
    Language : Thai

    Text #2
    ID : 4
    Format : UTF-8
    Codec ID : S_TEXT/UTF8
    Codec ID/Info : UTF-8 Plain Text
    Language : English

    เรื่องย่อ :

    คนกลุ่มหนึ่งฟื้นขึ้นมา พบว่าตนเองถูกขังเป็นนักโทษอยู่ในห้องสี่เหลี่ยม สถานที่แปลกประหลาดที่แวดล้อมด้วยห้องสี่เหลี่ยมอีกม ากมาย หลายห้องที่พวกเขาหลงเข้าไปมีกับดักที่คาดไม่ถึงแบบต ่างๆ รออยู่ สุดท้ายแล้ว พวกเขาจะสามารถออกไปจากสถานที่ลึกลับนี้ โดยยังมีลมหายใจได้หรือไม่?

    ข้อมูลเพิ่มเติม : http://www.imdb.com/title/tt0123755/






    http://www.filecondo.com/dl.php?f=5387811tsomc

  2. The Following 7 Users Say Thank You to Duckload.us For This Useful Post:

    B-Faii (03-15-2017), elfrunaway (03-28-2013), kappa (10-30-2012), kizschz (11-06-2012), moomarkmark (10-29-2012), smakha (01-09-2014), xchamp (11-10-2012)

  3. #2
    Junior Member
    สมัครเมื่อ
    Sep 2012
    โพสต์
    1
    Thanks
    0
    Thanked 0 Times in 0 Posts
    ขอบคุณครับ ภาคนี้ชอบมาก มีภาค 2 ด้วยก็ดีนะครับ

  4. #3
    Senior Member รูปส่วนตัว B-Faii
    สมัครเมื่อ
    Oct 2012
    ที่อยู่
    THAILAND
    โพสต์
    1,508
    Thanks
    1,787
    Thanked 0 Times in 0 Posts
    ขอบคุณมากๆเลยจ้าาา

  5. #4
    Junior Member
    สมัครเมื่อ
    Feb 2024
    โพสต์
    9
    Thanks
    0
    Thanked 0 Times in 0 Posts
    แก้ไขให้ทีอยากดูโหลดไม่่ได้

+ ตอบกลับกระทู้

ข้อมูลกระทู้

Users Browsing this Thread

ในขณะนี้มี 1 ท่านดูกระทู้อยู่. (0 สมาชิกและ 1 ผู้เยี่ยมชม)

     

กฎการโพสต์ข้อความ

  • ท่าน ไม่สามารถ ตั้งกระทู้ใหม่ได้
  • ท่าน ไม่สามารถ ตอบกระทู้ได้
  • ท่าน ไม่สามารถ แนบไฟล์ได้
  • ท่าน ไม่สามารถ แก้ไขข้อความโพสต์ได้
  • BB code สถานะ เปิด
  • Smilies สถานะ เปิด
  • [IMG] สถานะ เปิด
  • HTML สถานะ ปิด