+ ตอบกลับกระทู้
สรุปผลการค้นหา 1 ถึง 5 จากทั้งหมด 5
  1. #1
    Administrators รูปส่วนตัว Duckload.us
    สมัครเมื่อ
    Dec 2010
    โพสต์
    151,798
    Thanks
    7
    Thanked 158,767 Times in 69,413 Posts

    Lightbulb [ฝรั่ง]-[ใหม่] Stolen (2012) / คนโคตรระห่ำ [Encode.DTS.720p.CtHts] [Modified]-[เสียงอังกฤษ DTS+พากย์ไทย 5.1]-[บรรยายไทย+อังกฤษ] {เสียงซับไทย DVD Master+ซับไทยทำใหม่คมชัดถึงใจ แถมซับไทย PGS}





    Quote:

    ผลงานโดยผู้กำกับ The Expendables 2 และ Con Air ที่กลับมาร่วมงานกับพระเอกตลอดกาล นิโคลัส เคจ อีกครั้ง ใน Stolen หนังแอ็คชั่นสุดระทึก
    โดย นิโคลัส เคจ รับบท วิล โจรปล้นธนาคารที่เพิ่งถูกปล่อยตัวจากคุก แต่แล้วต้องพบว่าเพื่อนร่วมแก๊งเก่าได้ลักพาตัวลูกสา วของเขา และขังเอาไว้ในท้ายรถแท็กซี่ในนิวออร์ลีนส์โดยให้นำเ งินที่พวกเขาขโมยมา เพื่อแลกเปลี่ยนกับหมายเลขทะเบียนแท็กซี่...
    12 ชั่วโมง เงิน 10 ล้านเหรียญ และ 1 พ่อผู้สิ้นหวัง วิล ต้องพยายามทำทุกอย่างเพื่อช่วยลูกสาวของเขาก่อนที่จะ สายเกินไป



    Quote:

    Format : Matroska
    Format version : Version 4 / Version 2
    File size : 3.68 GiB
    Duration : 1h 35mn
    Overall bit rate : 5 491 Kbps
    Movie name : Stolen.2012.720p.BrRip.DTS.CtHts - PORSC
    Encoded date : UTC 2010-02-22 21:41:31
    Writing application : mkvmerge v5.9.0 ( On The Loose ) built on Dec 9 2012 15:37:01
    Writing library : libebml v1.3.0 + libmatroska v1.4.0

    Video
    ID : 1
    Format : MPEG-4 Visual
    Format profile : Advanced Simple@L5
    Format settings, BVOP : Yes
    Format settings, QPel : No
    Format settings, GMC : No warppoints
    Format settings, Matrix : Default (H.263)
    Codec ID : V_MS/VFW/FOURCC / XVID
    Codec ID/Hint : XviD
    Duration : 1h 35mn
    Bit rate : 3 424 Kbps
    Width : 1 280 pixels
    Height : 720 pixels
    Display aspect ratio : 16:9
    Frame rate mode : Constant
    Frame rate : 24.000 fps
    Color space : YUV
    Chroma subsampling : 4:2:0
    Bit depth : 8 bits
    Scan type : Progressive
    Compression mode : Lossy
    Bits/(Pixel*Frame) : 0.155
    Stream size : 2.29 GiB (62%)
    Title : Stolen.2012.720p.BrRip.DTS.CtHts - PORSC
    Writing library : XviD 1.2.1 (UTC 2008-12-04)
    Language : English
    Default : Yes
    Forced : No

    Audio #1
    ID : 2
    Format : DTS
    Format/Info : Digital Theater Systems
    Mode : 16
    Format settings, Endianness : Big
    Codec ID : A_DTS
    Duration : 1h 35mn
    Bit rate mode : Constant
    Bit rate : 1 509 Kbps
    Channel(s) : 6 channels
    Channel positions : Front: L C R, Side: L R, LFE
    Sampling rate : 48.0 KHz
    Bit depth : 24 bits
    Compression mode : Lossy
    Stream size : 1.01 GiB (27%)
    Title : English DTS
    Language : English
    Default : No
    Forced : No

    Audio #2
    ID : 3
    Format : AC-3
    Format/Info : Audio Coding 3
    Mode extension : CM (complete main)
    Format settings, Endianness : Big
    Codec ID : A_AC3
    Duration : 1h 35mn
    Bit rate mode : Constant
    Bit rate : 448 Kbps
    Channel(s) : 6 channels
    Channel positions : Front: L C R, Side: L R, LFE
    Sampling rate : 48.0 KHz
    Bit depth : 16 bits
    Compression mode : Lossy
    Delay relative to video : 22ms
    Stream size : 307 MiB (8%)
    Title : Thai DVD Master
    Language : Thai
    Default : Yes
    Forced : Yes

    Text #1
    ID : 4
    Format : VobSub
    Codec ID : S_VOBSUB
    Codec ID/Info : The same subtitle format used on DVDs
    Title : Thai 480p DVD Master
    Language : Thai
    Default : No
    Forced : No

    Text #2
    ID : 5
    Format : VobSub
    Codec ID : S_VOBSUB
    Codec ID/Info : The same subtitle format used on DVDs
    Title : Thai 1080p Angsana
    Language : Thai
    Default : Yes
    Forced : Yes

    Text #3
    ID : 6
    Format : VobSub
    Codec ID : S_VOBSUB
    Codec ID/Info : The same subtitle format used on DVDs
    Title : Thai 1080p Angsana Yellow
    Language : Thai
    Default : No
    Forced : No

    Text #4
    ID : 7
    Format : PGS
    Codec ID : S_HDMV/PGS
    Codec ID/Info : The same subtitle format used on BDs/HD-DVDs
    Title : Thai PGS
    Language : Thai
    Default : No
    Forced : No

    Text #5
    ID : 8
    Format : UTF-8
    Codec ID : S_TEXT/UTF8
    Codec ID/Info : UTF-8 Plain Text
    Title : English
    Language : English
    Default : No
    Forced : No




    Quote:

    SS-จับจากตัวไฟล์ครับ








    Quote:




    http://www.filecondo.com/dl.php?f=925c571tVkFU

  2. The Following 3 Users Say Thank You to Duckload.us For This Useful Post:

    captivateneung (01-21-2013), danaisak2503 (01-30-2013), patt_369 (01-16-2013)

  3. #2
    Member รูปส่วนตัว patt_369
    สมัครเมื่อ
    Jul 2011
    โพสต์
    92
    Thanks
    329
    Thanked 0 Times in 0 Posts
    ขอบคุณมากครับ

  4. #3
    Senior Member
    สมัครเมื่อ
    Nov 2012
    โพสต์
    362
    Thanks
    0
    Thanked 0 Times in 0 Posts
    ขอบคุณมากครับ

  5. #4
    Junior Member
    สมัครเมื่อ
    Oct 2012
    โพสต์
    3
    Thanks
    0
    Thanked 0 Times in 0 Posts
    ขอบคุณครับ

  6. #5
    Junior Member
    สมัครเมื่อ
    Apr 2017
    โพสต์
    1
    Thanks
    0
    Thanked 0 Times in 0 Posts
    ขอบคุณมาก

+ ตอบกลับกระทู้

ข้อมูลกระทู้

Users Browsing this Thread

ในขณะนี้มี 1 ท่านดูกระทู้อยู่. (0 สมาชิกและ 1 ผู้เยี่ยมชม)

     

กฎการโพสต์ข้อความ

  • ท่าน ไม่สามารถ ตั้งกระทู้ใหม่ได้
  • ท่าน ไม่สามารถ ตอบกระทู้ได้
  • ท่าน ไม่สามารถ แนบไฟล์ได้
  • ท่าน ไม่สามารถ แก้ไขข้อความโพสต์ได้
  • BB code สถานะ เปิด
  • Smilies สถานะ เปิด
  • [IMG] สถานะ เปิด
  • HTML สถานะ ปิด