+ ตอบกลับกระทู้
สรุปผลการค้นหา 1 ถึง 10 จากทั้งหมด 10
  1. #1
    Administrators รูปส่วนตัว Duckload.us
    สมัครเมื่อ
    Dec 2010
    โพสต์
    150,746
    Thanks
    7
    Thanked 157,985 Times in 68,981 Posts

    Lightbulb [ฝรั่ง]-สปาร์ตาคัส ขุนศึกชาติทมิฬ ปี 1 Spartacus Season 1 Completed 720p Bluray rip by ZAiTHStERY [เสียง English DD5.1] [บรรยาย ไทย/English แบบ Text SRT จากมาสเตอร์]



    สปาร์ตาคัส ขุนศึกชาติทมิฬ ปี 1
    Spartacus Season 1 Completed 720p Bluray rip
    by ZAiTHStERY

    เรื่องย่อ
    จากทาสอันต่ำต้อยสู่ขุนศึกผู้เกรียงไกร "สปาร์ตาคัส" นักสู้ที่โดดเด่นและได้รับการกล่าวขานมากที่สุดของยุ คโรมัน
    เมื่อหญิงผู้เป็นที่รัก ซูร่า ได้ถูกพรากชีวิตไปจากเขา ซ้ำยังถูกบังคับไปเป็นทาสและต้องต่อสู้ในสนามประลองอ ันดุเดือด เมื่อความตายอันน่าสยดสยองนั้น กลับกลายเป็นความบันเทิงของชาวโรมันและการต่อสู้ ไม่ได้เกิดเพียงในสนามประลองเท่านั้น สปาร์ตาคัสจำเป็นต้องใช้เล่ห์กล อุบายต่างๆ เพื่อเอาชีวิตรอดในโลกแห่งการฉ้อฉลและความรุนแรง แต่ด้วยความรักที่จะทำให้เขาแข็งแกร่งและเอาชนะทุกสิ ่งที่เป็นอุปสรรคกีด ขวาง รวมไปถึงเรื่องราวแห่งความตาย เกียรติยศ และความอดทนนี้ได้


    ซับ 2 รูปแบบ
    1. Thai SRT คมชัดบาดตา OCR จากมาสเตอร์ ดูตัวอย่าง SS ด้านล่างครับ
    2. English SRT


    ต้นฉบับ Bluray rip 720p บิตเรทสูงเหมือนกับเรื่อง Game of Thrones ที่ผมเพิ่งปล่อยไปครับ
    ซับไทยได้มานานแล้ว จากเว็บเพื่อนบ้านครับ
    นำมา OCR เป็น Text เพื่อความคมชัดสะใจ เหมาะกับนักสะสมที่เน้นคุณภาพครับ


    MEDIA INFO
    Complete name : Spartacus.Blood.and.Sand.S01E01.720p.BluRay.x264-ZAiTHStERY.mkv
    Format : Matroska
    Format version : Version 4 / Version 2
    File size : 2.55 GiB
    Duration : 54mn 56s
    Overall bit rate : 6 642 Kbps
    Encoded date : UTC 2013-03-06 07:09:23
    Writing application : mkvmerge v6.1.0 ( Old Devil ) built on Mar 2 2013 14:32:37
    Writing library : libebml v1.3.0 + libmatroska v1.4.0

    Video
    ID : 1
    Format : AVC
    Format/Info : Advanced Video Codec
    Format profile : [email protected]
    Format settings, CABAC : Yes
    Format settings, ReFrames : 9 frames
    Codec ID : V_MPEG4/ISO/AVC
    Duration : 54mn 56s
    Bit rate : 6 000 Kbps
    Width : 1 280 pixels
    Height : 720 pixels
    Display aspect ratio : 16:9
    Frame rate mode : Constant
    Frame rate : 23.976 fps
    Color space : YUV
    Chroma subsampling : 4:2:0
    Bit depth : 8 bits
    Scan type : Progressive
    Bits/(Pixel*Frame) : 0.272
    Stream size : 2.25 GiB (88%)
    Writing library : x264 core 104 r1713 c276662
    Language : English
    Default : Yes
    Forced : No

    Audio
    ID : 2
    Format : AC-3
    Format/Info : Audio Coding 3
    Mode extension : CM (complete main)
    Format settings, Endianness : Big
    Codec ID : A_AC3
    Duration : 54mn 56s
    Bit rate mode : Constant
    Bit rate : 640 Kbps
    Channel(s) : 6 channels
    Channel positions : Front: L C R, Side: L R, LFE
    Sampling rate : 48.0 KHz
    Bit depth : 16 bits
    Compression mode : Lossy
    Stream size : 251 MiB (10%)
    Default : Yes
    Forced : No

    Text #1
    ID : 3
    Format : UTF-8
    Codec ID : S_TEXT/UTF8
    Codec ID/Info : UTF-8 Plain Text
    Title : Thai
    Language : Thai
    Default : Yes
    Forced : No

    Text #2
    ID : 4
    Format : UTF-8
    Codec ID : S_TEXT/UTF8
    Codec ID/Info : UTF-8 Plain Text
    Title : English
    Language : English
    Default : No
    Forced : No


    SS





    1
    http://www.filecondo.com/dl.php?f=Idec8b1ujGnJ
    2
    http://www.filecondo.com/dl.php?f=10893b21ujG7F
    3
    http://www.filecondo.com/dl.php?f=E57e521ujGfc
    4
    http://www.filecondo.com/dl.php?f=Hf4dd81ujGkx
    5
    http://www.filecondo.com/dl.php?f=t947db1ujGqC
    6
    http://www.filecondo.com/dl.php?f=Bed5eb1ujGE9
    7
    http://www.filecondo.com/dl.php?f=i0f6c11ujFW5
    8
    http://www.filecondo.com/dl.php?f=G3cdf01ujFXB
    9
    http://www.filecondo.com/dl.php?f=l595c41ujGK3
    10
    http://www.filecondo.com/dl.php?f=N0bee51ujGJb
    11
    http://www.filecondo.com/dl.php?f=jd5b2e1ujGJK
    12
    http://www.filecondo.com/dl.php?f=F263571ujGLm
    13
    http://www.filecondo.com/dl.php?f=i7fe4d1ujGNz

  2. The Following 7 Users Say Thank You to Duckload.us For This Useful Post:

    beerdum (09-22-2013), drift_king (09-26-2013), imza (09-28-2013), jessadatun (06-24-2013), jill valentine (05-27-2013), mernlnw (03-22-2014), SaRunRB11 (04-19-2014)

  3. #2
    Senior Member
    สมัครเมื่อ
    Jul 2012
    โพสต์
    8,630
    Thanks
    0
    Thanked 0 Times in 0 Posts
    ขอบคุณมากจ้า

  4. #3
    Junior Member
    สมัครเมื่อ
    Aug 2012
    โพสต์
    9
    Thanks
    0
    Thanked 0 Times in 0 Posts
    มันต้องแบบนี้ครับ ถึงจะสะใจ ขอบคุณครับ ขอภาคต่อด้วยนะครับ ไว้ดูช่วงสงกรานต์

  5. #4
    Junior Member
    สมัครเมื่อ
    Jun 2012
    โพสต์
    6
    Thanks
    0
    Thanked 0 Times in 0 Posts
    สุดยอดครับ

  6. #5
    Junior Member
    สมัครเมื่อ
    Apr 2013
    โพสต์
    2
    Thanks
    0
    Thanked 0 Times in 0 Posts
    ขอ Season 2 ด้วยครับ กำลังติดเลย มันส์มาก ขอบคุณครับ

  7. #6
    Senior Member
    สมัครเมื่อ
    Jan 2013
    โพสต์
    326
    Thanks
    409
    Thanked 0 Times in 0 Posts
    thank you very much

  8. #7
    Junior Member
    สมัครเมื่อ
    Jun 2013
    โพสต์
    25
    Thanks
    0
    Thanked 0 Times in 0 Posts
    ภาพสวยสุดยอดมากครับ Thank you

  9. #8
    Junior Member
    สมัครเมื่อ
    Sep 2012
    โพสต์
    16
    Thanks
    1
    Thanked 0 Times in 0 Posts
    ขอ Season 2 คุณภาพแบบนี้มั่งครับ

  10. #9
    Senior Member รูปส่วนตัว aiekung
    สมัครเมื่อ
    Jul 2015
    โพสต์
    103
    Thanks
    0
    Thanked 0 Times in 0 Posts
    สุดยอดครับ

  11. #10
    Junior Member
    สมัครเมื่อ
    Jul 2016
    โพสต์
    7
    Thanks
    1
    Thanked 0 Times in 0 Posts
    ตอน 3 โหลดไม่ได้ครับ

+ ตอบกลับกระทู้

ข้อมูลกระทู้

Users Browsing this Thread

ในขณะนี้มี 1 ท่านดูกระทู้อยู่. (0 สมาชิกและ 1 ผู้เยี่ยมชม)

     

กฎการโพสต์ข้อความ

  • ท่าน ไม่สามารถ ตั้งกระทู้ใหม่ได้
  • ท่าน ไม่สามารถ ตอบกระทู้ได้
  • ท่าน ไม่สามารถ แนบไฟล์ได้
  • ท่าน ไม่สามารถ แก้ไขข้อความโพสต์ได้
  • BB code สถานะ เปิด
  • Smilies สถานะ เปิด
  • [IMG] สถานะ เปิด
  • HTML สถานะ ปิด