+ ตอบกลับกระทู้
สรุปผลการค้นหา 1 ถึง 4 จากทั้งหมด 4
  1. #1
    Administrators รูปส่วนตัว Duckload.us
    สมัครเมื่อ
    Dec 2010
    โพสต์
    152,320
    Thanks
    7
    Thanked 159,233 Times in 69,662 Posts

    Lightbulb [ฝรั่ง]-A River Runs Through It (1992)/สายน้ำลูกผู้ชาย ***ผลงานการแสดงที่แจ้งเกิดให้กับ Brad Pitt*** [พากย์:English DTS][SUB:English/Thai]-MiniBD.DTS.720p. [Modified]-[Soundtrack บรรยายไทย]



    Release date: October 9, 1992 (USA)
    Directed by: Robert Redford
    Produced by: Jake Eberts, Robert Redford, Patrick Markey
    Written by: Norman Maclean (novel), Richard Friedenberg (screenplay)
    Starring: Craig Sheffer, Brad Pitt, Tom Skerritt, Brenda Blethyn, Emily Lloyd
    Music by: Mark Isham
    Cinematography by: Philippe Rousselot
    Editing by: Robert Estrin, Lynzee Klingman
    Genre: Action/Western
    Running time: 02:03:37
    IMDb rating: 7.1/10 (29,170 votes)

    (Sources: IMDb & Wikipedia)

    ".....River Runs Through It เป็นหนังที่สร้างจากเรื่องจริง จากชีวิตของสองพี่น้องคนธรรมดาๆ ครอบครัว Maclean ผู้มีพ่อเป็นบาทหลวง ที่เฝ้าดูและอบรมลูกชายทั้ง 2 อย่างสุขุมลึกซึ้ง แต่ท้ายสุดแล้ว ทั้งสองคนต่างเลือกทางเดินชีวิตในแบบของตัวเอง ที่ผิดแผกแตกต่างกันอย่างคาดไม่ถึง แม้ว่าสิ่งหนึ่งในชีวิตที่ทั้งคู่จะรักและเข้าใจคล้า ยๆกัน นั่นคือการตกปลาในแม่น้ำเมือง Montana ที่พวกเขาเติบโตมา

    หนังเรื่องนี้ใช้ฉากชีวิตในชนบท มีฉากสายน้ำและเรื่องราวการตกปลาเป็นภาพการถ่ายทอดสำ คัญ การดำเนินเรื่องเป็นไปอย่างสงบเรียบ แต่สอดแทรกได้ครบทุกองค์ประกอบของเรื่องราว จึงไม่แปลกใจที่รางวัลและการเสนอชื่อให้กับหนังเรื่อ งนี้จะเอียงเทไปทางบท ภาพยนตร์ การถ่ายภาพ และผู้กำกับ มากกว่าตัวนักแสดง

    Robert Redford ผู้กำกับหนังเรื่องนี้ จับบทหนังเรื่องนี้มากำกับเป็นงานชิ้นที่ 3 ของเขา ซึ่งถือว่าทำออกมาได้อย่างงดงามและพิถีพิถัน

    อาจจะเก่าไปนิดสำหรับหนังปี 1992 แต่ความคลาสสิคและความซาบซึ้งจากหนังเรื่องนี้ยังร่ว มสมัยอยู่ทุกครั้งที่ได้หยิบมาดู......"

    (คัดลอกบทความบางส่วนมาจากเว็บ การบ้าน.com --- - > http://www.การบ้าน.com/read-content-tid-163688.html ขออนุญาตและขอบคุณท่าน "karnban" เจ้าของบทความมา ณ ที่นี้ด้วย)

    Quality: BDRip
    File Format: mkv
    Video codec: x.264
    Audio codec: DTS
    Video Resoluton: 1280x688 (1.86:1) / 23.976 fps / 4,380 kbps / 0.207 bit/pixel
    Audio: English 6 ch (Front: L C R, Side: L R, LFE) / 48.0 kHz / 1,510 kbps
    Subtitles: English/Thai (on external files)

    Special thanks to the original uploader and especially "TATEE" for Thai subtitle.

    Media Info:

    General

    Unique ID : 178607060169769914087953936304803518883 (0x865E77F2A155BFA697F70A495D6599A3)
    Complete name : D:MoviesA River Runs Through It (1992) (BDRip 720p)A.River.Runs.Through.It.1992.720p.BluRay.x264 .Eng.DTS-SiNNERS.mkv
    Format : Matroska
    Format version : Version 4 / Version 2
    File size : 5.19 GiB
    Duration : 2h 3mn
    Overall bit rate : 6 009 Kbps
    Encoded date : UTC 2013-05-22 19:15:03
    Writing application : mkvmerge v6.0.0 ( Coming Up For Air ) built on Jan 20 2013 09:52:00
    Writing library : libebml v1.3.0 + libmatroska v1.4.0

    Video
    ID : 1
    Format : AVC
    Format/Info : Advanced Video Codec
    Format profile : [email protected]
    Format settings, CABAC : Yes
    Format settings, ReFrames : 3 frames
    Codec ID : V_MPEG4/ISO/AVC
    Duration : 2h 3mn
    Bit rate mode : Constant
    Bit rate : 4 380 Kbps
    Nominal bit rate : 4 700 Kbps / 4 700 Kbps
    Width : 1 280 pixels
    Height : 688 pixels
    Display aspect ratio : 1.860
    Frame rate : 23.976 fps
    Standard : NTSC
    Color space : YUV
    Chroma subsampling : 4:2:0
    Bit depth : 8 bits
    Scan type : Progressive
    Bits/(Pixel*Frame) : 0.207
    Stream size : 3.78 GiB (73%)
    Writing library : x264 core 114
    Encoding settings : cabac=1 / ref=3 / deblock=1:0:0 / analyse=0x3:0x113 / me=hex / subme=7 / psy=1 / psy_rd=1.00:0.00 / mixed_ref=1 / me_range=16 / chroma_me=1 / trellis=1 / 8x8dct=1 / cqm=2 / deadzone=21,11 / fast_pskip=1 / chroma_qp_offset=-2 / threads=6 / sliced_threads=0 / slices=1 / nr=0 / decimate=1 / interlaced=0 / constrained_intra=0 / bframes=3 / b_pyramid=0 / b_adapt=1 / b_bias=0 / direct=1 / weightb=1 / open_gop=0 / weightp=2 / keyint=250 / keyint_min=23 / scenecut=40 / intra_refresh=0 / rc_lookahead=40 / rc=cbr / mbtree=1 / bitrate=4700 / ratetol=1.0 / qcomp=0.60 / qpmin=3 / qpmax=69 / qpstep=4 / vbv_maxrate=4700 / vbv_bufsize=4685 / nal_hrd=cbr / ip_ratio=1.40 / aq=1:1.00
    Color primaries : BT.709-5, BT.1361, IEC 61966-2-4, SMPTE RP177
    Transfer characteristics : BT.709-5, BT.1361
    Matrix coefficients : BT.709-5, BT.1361, IEC 61966-2-4 709, SMPTE RP177

    Audio
    ID : 2
    Format : DTS
    Format/Info : Digital Theater Systems
    Codec ID : A_DTS
    Duration : 2h 3mn
    Bit rate mode : Constant
    Bit rate : 1 510 Kbps
    Channel(s) : 6 channels
    Channel positions : Front: L C R, Side: L R, LFE
    Sampling rate : 48.0 KHz
    Bit depth : 16 bits
    Compression mode : Lossy
    Stream size : 1.30 GiB (25%)
    Language : English

    Text
    ID : 3
    Format : UTF-8
    Codec ID : S_TEXT/UTF8
    Codec ID/Info : UTF-8 Plain Text
    Language : English



    credit k.humyaimakmak

    http://www.filecondo.com/dl.php?f=K3cfeb1uGrqs

  2. The Following User Says Thank You to Duckload.us For This Useful Post:

    banjung (09-06-2015)

  3. #2
    Senior Member
    สมัครเมื่อ
    Aug 2012
    โพสต์
    863
    Thanks
    0
    Thanked 0 Times in 0 Posts
    ขอบคุณครับ

  4. #3
    Member
    สมัครเมื่อ
    Apr 2013
    โพสต์
    88
    Thanks
    1
    Thanked 0 Times in 0 Posts
    โอ่ รับไปชม การแจ้งเกิดครั้งนี้
    ขอบคุณครับ

  5. #4
    Senior Member รูปส่วนตัว aiekung
    สมัครเมื่อ
    Jul 2015
    โพสต์
    118
    Thanks
    0
    Thanked 0 Times in 0 Posts
    Load ไม่ได้

+ ตอบกลับกระทู้

ข้อมูลกระทู้

Users Browsing this Thread

ในขณะนี้มี 1 ท่านดูกระทู้อยู่. (0 สมาชิกและ 1 ผู้เยี่ยมชม)

     

กฎการโพสต์ข้อความ

  • ท่าน ไม่สามารถ ตั้งกระทู้ใหม่ได้
  • ท่าน ไม่สามารถ ตอบกระทู้ได้
  • ท่าน ไม่สามารถ แนบไฟล์ได้
  • ท่าน ไม่สามารถ แก้ไขข้อความโพสต์ได้
  • BB code สถานะ เปิด
  • Smilies สถานะ เปิด
  • [IMG] สถานะ เปิด
  • HTML สถานะ ปิด