+ ตอบกลับกระทู้
สรุปผลการค้นหา 1 ถึง 4 จากทั้งหมด 4
  1. #1
    Administrators รูปส่วนตัว Duckload.us
    สมัครเมื่อ
    Dec 2010
    โพสต์
    152,251
    Thanks
    7
    Thanked 159,160 Times in 69,626 Posts

    Lightbulb [ญี่ปุ่น]-[ใหม่ร้อนๆ!] Lesson Of The Evil : บทเรียนครูปีศาจ -CtHts. [พากย์ไทย + ญี่ปุ่น 5.1 @ZEZA]-[บรรยาย อังกฤษ]-[Encode.H.264.1080p.]-[เสียงไทย MASTER]




    wrote:

    ...เซย์จิ ฮาซูมิ เป็นครูสอนภาษาอังกฤษดีกรีมหาวิทยาลัยฮาร์วาร์ด เซย์จิเป็นครูที่ทั้งนักเรียนและเพื่อนร่วมงานรัก ด้วยบุคลิก การศึกษา
    และหน้าตาที่จัดอยู่ในระดับดี แต่ใครจะรู้ว่าแท้จริงแล้วภายใต้รอยยิ้มชวนหลงใหลนี้ เขาคือฆาตกรเลือดเย็น แล้ววันหนึ่งเซย์จิก็ได้เผยธาตุแท้
    เขาเริ่มไล่ฆ่านักเรียนทีละคนอย่างโหดเหี้ยมและเลือด เย็น เป็นจุดกำเนิดของการสังหารหมู่ครั้งยิ่งใหญ่
    แล้วใครจะหยุดเขาได้ก่อนที่ทุกอย่างจะสายเกินไป !!!


    wrote:

    Format : Matroska
    Format version : Version 4 / Version 2
    File size : 10.1 GiB
    Duration : 2h 9mn
    Overall bit rate : 11.2 Mbps
    Movie name : Lesson.of.the Evil.2012.1080p.BluRay.x264_by NongZEZA@CtHts
    Encoded date : UTC 2010-02-22 21:41:31
    Writing application : mkvmerge v5.9.0 ( On The Loose ) built on Dec 9 2012 15:37:01
    Writing library : libebml v1.3.0 + libmatroska v1.4.0

    Video
    ID : 1
    Format : AVC
    Format/Info : Advanced Video Codec
    Format profile : [email protected]
    Format settings, CABAC : Yes
    Format settings, ReFrames : 5 frames
    Codec ID : V_MPEG4/ISO/AVC
    Duration : 2h 9mn
    Bit rate : 10.4 Mbps
    Width : 1 920 pixels
    Height : 800 pixels
    Display aspect ratio : 2.40:1
    Frame rate mode : Constant
    Frame rate : 23.976 fps
    Color space : YUV
    Chroma subsampling : 4:2:0
    Bit depth : 8 bits
    Scan type : Progressive
    Bits/(Pixel*Frame) : 0.284
    Stream size : 9.15 GiB (90%)
    Title : Lesson.of.the Evil.2012.1080p.BluRay.x264_by NongZEZA@CtHts
    Writing library : x264 core 130 r2273 b3065e6
    Encoding settings : cabac=1 / ref=5 / deblock=1:1:0 / analyse=0x3:0x113 / me=umh / subme=8 / psy=1 / psy_rd=1.00:0.15 / mixed_ref=1 / me_range=16 / chroma_me=1 / trellis=1 / 8x8dct=1 / cqm=0 / deadzone=21,11 / fast_pskip=1 / chroma_qp_offset=-3 / threads=16 / lookahead_threads=2 / sliced_threads=0 / nr=0 / decimate=1 / interlaced=0 / bluray_compat=0 / constrained_intra=0 / bframes=3 / b_pyramid=2 / b_adapt=2 / b_bias=0 / direct=3 / weightb=1 / open_gop=0 / weightp=2 / keyint=240 / keyint_min=23 / scenecut=40 / intra_refresh=0 / rc_lookahead=50 / rc=abr / mbtree=1 / bitrate=10447 / ratetol=1.0 / qcomp=0.60 / qpmin=0 / qpmax=69 / qpstep=4 / ip_ratio=1.40 / aq=1:1.10
    Language : English
    Default : Yes
    Forced : No

    Audio #1
    ID : 2
    Format : AC-3
    Format/Info : Audio Coding 3
    Mode extension : CM (complete main)
    Format settings, Endianness : Big
    Codec ID : A_AC3
    Duration : 2h 9mn
    Bit rate mode : Constant
    Bit rate : 224 Kbps
    Channel(s) : 2 channels
    Channel positions : Front: L R
    Sampling rate : 48.0 KHz
    Bit depth : 16 bits
    Compression mode : Lossy
    Stream size : 207 MiB (2%)
    Title : Thai Master
    Language : Thai
    Default : Yes
    Forced : Yes

    Audio #2
    ID : 3
    Format : AC-3
    Format/Info : Audio Coding 3
    Mode extension : CM (complete main)
    Format settings, Endianness : Big
    Codec ID : A_AC3
    Duration : 2h 9mn
    Bit rate mode : Constant
    Bit rate : 640 Kbps
    Channel(s) : 6 channels
    Channel positions : Front: L C R, Side: L R, LFE
    Sampling rate : 48.0 KHz
    Bit depth : 16 bits
    Compression mode : Lossy
    Stream size : 591 MiB (6%)
    Title : Japanese
    Language : Japanese
    Default : No
    Forced : No

    Text
    ID : 4
    Format : UTF-8
    Codec ID : S_TEXT/UTF8
    Codec ID/Info : UTF-8 Plain Text
    Title : English
    Language : English
    Default : No
    Forced : No

    Menu
    00:00:00.000 : en:00:00:00.000
    00:05:53.353 : en:00:05:53.353
    00:13:24.095 : en:00:13:24.095
    00:21:11.812 : en:00:21:11.812
    00:27:42.244 : en:00:27:42.244
    00:35:57.572 : en:00:35:57.572
    00:41:33.116 : en:00:41:33.116
    00:47:44.570 : en:00:47:44.570
    00:55:17.397 : en:00:55:17.397
    01:05:20.708 : en:01:05:20.708
    01:11:37.668 : en:01:11:37.668
    01:17:56.672 : en:01:17:56.672
    01:25:14.943 : en:01:25:14.943
    01:31:35.281 : en:01:31:35.281
    01:39:28.796 : en:01:39:28.796
    01:47:13.552 : en:01:47:13.552
    01:56:22.684 : en:01:56:22.684
    02:05:26.769 : en:02:05:26.769


    wrote:

    SS แค๊ปจากตัวไฟล์ ค่ะ





    ขอขอบคุณเสียงไทยมาสเตอร์ โดย : คุณ kekoku มากค่ะ
    ส่งมอบ โดย : NongZEZA~



    http://www.filecondo.com/dl.php?f=D1f2ca1wKqHL

  2. The Following 5 Users Say Thank You to Duckload.us For This Useful Post:

    anannitisat (07-29-2014), beerdum (05-18-2014), oxy (11-25-2016), StepLoveDj Like (07-29-2014), theanimal (05-18-2014)

  3. #2
    Senior Member
    สมัครเมื่อ
    Jan 2014
    โพสต์
    752
    Thanks
    784
    Thanked 0 Times in 0 Posts
    ขอบคุณมากๆคับ

  4. #3
    Senior Member รูปส่วนตัว anannitisat
    สมัครเมื่อ
    Oct 2012
    ที่อยู่
    Thailand
    โพสต์
    2,346
    Thanks
    2,884
    Thanked 3 Times in 2 Posts
    ขอบคุณมากครับ





  5. #4
    Senior Member
    สมัครเมื่อ
    Sep 2013
    โพสต์
    328
    Thanks
    0
    Thanked 0 Times in 0 Posts
    ขอบคุณมากฮะ

+ ตอบกลับกระทู้

ข้อมูลกระทู้

Users Browsing this Thread

ในขณะนี้มี 1 ท่านดูกระทู้อยู่. (0 สมาชิกและ 1 ผู้เยี่ยมชม)

     

กฎการโพสต์ข้อความ

  • ท่าน ไม่สามารถ ตั้งกระทู้ใหม่ได้
  • ท่าน ไม่สามารถ ตอบกระทู้ได้
  • ท่าน ไม่สามารถ แนบไฟล์ได้
  • ท่าน ไม่สามารถ แก้ไขข้อความโพสต์ได้
  • BB code สถานะ เปิด
  • Smilies สถานะ เปิด
  • [IMG] สถานะ เปิด
  • HTML สถานะ ปิด