+ ตอบกลับกระทู้
สรุปผลการค้นหา 1 ถึง 1 จากทั้งหมด 1
  1. #1
    Administrators รูปส่วนตัว Duckload.us
    สมัครเมื่อ
    Dec 2010
    โพสต์
    125,078
    Thanks
    7
    Thanked 130,059 Times in 57,675 Posts

    Lightbulb [ญี่ปุ่น]-[ใหม่เล็ก..ชัดแจ่ม] 1080p. Lesson Of The Evil : บทเรียนครูปีศาจ - [email protected][พากย์ไทย + ญี่ปุ่น 5.1]-[บรรยาย อังกฤษ]-[เสียงไทย MASTER]



    Quote:


    ...เซย์จิ ฮาซูมิ เป็นครูสอนภาษาอังกฤษดีกรีมหาวิทยาลัยฮาร์วาร์ด เซย์จิเป็นครูที่ทั้งนักเรียนและเพื่อนร่วมงานรัก ด้วยบุคลิก การศึกษา
    และหน้าตาที่จัดอยู่ในระดับดี แต่ใครจะรู้ว่าแท้จริงแล้วภายใต้รอยยิ้มชวนหลงใหลนี้ เขาคือฆาตกรเลือดเย็น แล้ววันหนึ่งเซย์จิก็ได้เผยธาตุแท้
    เขาเริ่มไล่ฆ่านักเรียนทีละคนอย่างโหดเหี้ยมและเลือด เย็น เป็นจุดกำเนิดของการสังหารหมู่ครั้งยิ่งใหญ่
    แล้วใครจะหยุดเขาได้ก่อนที่ทุกอย่างจะสายเกินไป !!!


    Quote:


    Format : Matroska
    Format version : Version 4 / Version 2
    File size : 1.66 GiB
    Duration : 2h 9mn
    Overall bit rate : 1 846 Kbps
    Movie name : Lesson.of.the Evil.2012.1080p._by [email protected]
    Encoded date : UTC 2014-05-14 07:17:18
    Writing application : mkvmerge v6.9.1 ( Blue Panther ) 64bit built on Apr 21 2014 16:21:33
    Writing library : libebml v1.3.0 + libmatroska v1.4.1

    Video
    ID : 1
    Format : AVC
    Format/Info : Advanced Video Codec
    Format profile : [email protected]
    Format settings, CABAC : Yes
    Format settings, ReFrames : 4 frames
    Codec ID : V_MPEG4/ISO/AVC
    Duration : 2h 9mn
    Bit rate : 1 300 Kbps
    Width : 1 920 pixels
    Height : 800 pixels
    Display aspect ratio : 2.40:1
    Frame rate mode : Constant
    Frame rate : 23.976 fps
    Color space : YUV
    Chroma subsampling : 4:2:0
    Bit depth : 8 bits
    Scan type : Progressive
    Bits/(Pixel*Frame) : 0.035
    Stream size : 1.14 GiB (69%)
    Writing library : x264 core 130 r2273 b3065e6
    Encoding settings : cabac=1 / ref=1 / deblock=1:0:0 / analyse=0x1:0x111 / me=hex / subme=9 / psy=1 / psy_rd=1.00:0.00 / mixed_ref=0 / me_range=16 / chroma_me=1 / trellis=0 / 8x8dct=0 / cqm=0 / deadzone=21,11 / fast_pskip=1 / chroma_qp_offset=-2 / threads=6 / lookahead_threads=1 / sliced_threads=0 / nr=0 / decimate=1 / interlaced=0 / bluray_compat=0 / constrained_intra=0 / bframes=3 / b_pyramid=2 / b_adapt=1 / b_bias=0 / direct=1 / weightb=1 / open_gop=0 / weightp=1 / keyint=240 / keyint_min=24 / scenecut=40 / intra_refresh=0 / rc_lookahead=10 / rc=2pass / mbtree=1 / bitrate=1300 / ratetol=1.0 / qcomp=0.60 / qpmin=0 / qpmax=69 / qpstep=4 / cplxblur=20.0 / qblur=0.5 / vbv_maxrate=20000 / vbv_bufsize=25000 / nal_hrd=none / ip_ratio=1.40 / aq=1:1.00
    Language : English
    Default : Yes
    Forced : No
    Color primaries : BT.709
    Transfer characteristics : BT.709
    Matrix coefficients : BT.709

    Audio #1
    ID : 2
    Format : AC-3
    Format/Info : Audio Coding 3
    Mode extension : CM (complete main)
    Format settings, Endianness : Big
    Codec ID : A_AC3
    Duration : 2h 9mn
    Bit rate mode : Constant
    Bit rate : 224 Kbps
    Channel(s) : 2 channels
    Channel positions : Front: L R
    Sampling rate : 48.0 KHz
    Bit depth : 16 bits
    Compression mode : Lossy
    Stream size : 207 MiB (12%)
    Language : Thai
    Default : Yes
    Forced : No

    Audio #2
    ID : 3
    Format : AC-3
    Format/Info : Audio Coding 3
    Mode extension : CM (complete main)
    Format settings, Endianness : Big
    Codec ID : A_AC3
    Duration : 2h 9mn
    Bit rate mode : Constant
    Bit rate : 320 Kbps
    Channel(s) : 6 channels
    Channel positions : Front: L C R, Side: L R, LFE
    Sampling rate : 48.0 KHz
    Bit depth : 16 bits
    Compression mode : Lossy
    Stream size : 295 MiB (17%)
    Language : Japanese
    Default : No
    Forced : No

    Text
    ID : 4
    Format : UTF-8
    Codec ID : S_TEXT/UTF8
    Codec ID/Info : UTF-8 Plain Text
    Title : English
    Language : English
    Default : No
    Forced : No


    Quote:

    SS-จากตัวไฟล์ครับ



    ขอขอบคุณ เสียงไทย + ซับไทย มาสเตอร์ จาก NongZEZA~ พี่เจน (คนสวย) แห่งทีม CtHts

    Modifile By aoJvoJ [ลองของ] HI - Definition





    Quote:




    http://www.filecondo.com/dl.php?f=ma47251wKwgL

  2. The Following User Says Thank You to Duckload.us For This Useful Post:

    xchamp (10-07-2014)

+ ตอบกลับกระทู้

ข้อมูลกระทู้

Users Browsing this Thread

ในขณะนี้มี 1 ท่านดูกระทู้อยู่. (0 สมาชิกและ 1 ผู้เยี่ยมชม)

     

กฎการโพสต์ข้อความ

  • ท่าน ไม่สามารถ ตั้งกระทู้ใหม่ได้
  • ท่าน ไม่สามารถ ตอบกระทู้ได้
  • ท่าน ไม่สามารถ แนบไฟล์ได้
  • ท่าน ไม่สามารถ แก้ไขข้อความโพสต์ได้
  • BB code สถานะ เปิด
  • Smilies สถานะ เปิด
  • [IMG] สถานะ เปิด
  • HTML สถานะ ปิด