+ Reply to Thread
Results 1 to 2 of 2
  1. #1
    Administrators Duckload.us's Avatar
    Join Date
    Dec 2010
    Posts
    114,512
    Thanks
    7
    Thanked 120,851 Times in 54,337 Posts

    Exclamation [ฝรั่ง]-Percy Jackson & the Olympians: The Lightning Thief :: เพอร์ซี่ย์ แจ็คสัน กับสายฟ้าที่หายไป -Blu-ray.H.264.1080p.[Sub : Eng/ไทย]-[Sound : Eng/ไทย]




    Logan Lerman ... Percy Jackson
    Brandon T. Jackson ... Grover
    Alexandra Daddario ... Annabeth Chase
    Jake Abel ... Luke
    Sean Bean ... Zeus
    Pierce Brosnan ... Mr. Brunner / Chiron
    Steve Coogan ... Hades
    Rosario Dawson ... Persephone
    Melina Kanakaredes ... Athena
    Catherine Keener ... Sally Jackson
    Kevin McKidd ... Poseidon
    Joe Pantoliano ... Gabe Ugliano
    Uma Thurman ... Medusa
    Julian Richings ... Ferryman
    Bonita Friedericy ... Hysterical Woman


    ภาพยนตร์เรื่อง PERCY JACKSON & THE OLYMPIANS: THE LIGHTNING THIEF สร้างจากหนังสือเล่มแรกของนวนิยายชุดขายดี ที่เล่าเรื่องราวของโลกยุคใหม่ วันที่เทพเจ้า 12 องค์แห่งขุนเขาโอลิมปุส (Mount Olympus) ซึ่งสถิตย์อยู่เหนือพื้นโลกมนุษย์ขึ้นไปถึง 600 ชั้นตรงอาคารเอ็มไฟร์สเตท (Empire State Building) อันเป็นสัญลักษณ์ของมหานครนิวยอร์ค (New York) ลุกขึ้นมารังสรรค์การแข่งขันครั้งใหม่ให้เหล่าทวยเทพ วัยเยาว์หนุ่ม ๆ ที่เป็นเดมิก็อด (demigods) หรือกึ่งเทพกึ่งมนุษย์ได้ออกแรงกันบ้าง

    เซอุส (ฌอน บีน) ตั้งข้อกล่าวหาว่า เพอร์ซี่ (โลแกน เลอร์แมน) บุตรชายวัยรุ่นของเทพโพไซดอน (เควิน แมตคิตต์) เป็นผู้ต้องสงสัยขโมยสายฟ้าฟาด ซึ่งเป็นยุทโธปกรณ์ที่ทรงพลังอำนาจมากที่สุดในจักรวา ล ไปจากเขา

    เพื่อพิสูจน์ว่าเป็นผู้บริสุทธิ์จากข้อกล่าวหาร้ายแร ง และหลีกเลี่ยงสงครามระหว่างทวยเทพที่อาจปะทุขึ้น เพอร์ซี่จำต้องออก ผจญข้ามโลกไปจับขโมยตัวจริงมาลงโทษให้ได้ ตลอดการเดินทางครั้งสำคัญนี้เองที่เขาต้องประมือกับเ หล่าอริศัตรูจอมโหดตน แล้วตนเล่าที่หมายมุ่งมาสกัดไม่ให้ภาระกิจนี้สำเร็จล ุล่วง แล้วยังจะต้องคอยปกป้องพระมารดาจาก เฮเดส (สตีฟ คูแกน) เทพเจ้ากรีก (Greek god) ที่มุ่งปองร้ายด้วย





    General
    Complete name : Percy.Jackson.The.Lightning.Thief.2010.Bluray.1080 p.DTSMA.x264.dxvaPercy.Jackson.The.Lightning.Thief .2010.Bluray.1080p.DTSMA.x264.dxva.mkv
    Format : Matroska
    Format version : Version 2
    File size : 17.2 GiB
    Duration : 1h 58mn
    Overall bit rate mode : Variable
    Overall bit rate : 20.8 Mbps
    Encoded date : UTC 2010-06-21 16:05:02
    Writing application : mkvmerge v3.3.0 ( Language ) built on Mar 24 2010 14:59:24
    Writing library : libebml v0.8.0 + libmatroska v0.9.0

    Video
    ID : 1
    Format : AVC
    Format/Info : Advanced Video Codec
    Format profile : [email protected]
    Format settings , CABAC : Yes
    Format settings , ReFrames : 4 frames
    Codec ID : V_MPEG4/ISO/AVC
    Duration : 1h 58mn
    Bit rate : 18.2 Mbps
    Nominal bit rate : 16.5 Mbps
    Width : 1 920 pixels
    Height : 816 pixels
    Display aspect ratio : 2.35:1
    Frame rate : 23.976 fps
    Color space : YUV
    Chroma subsampling : 4:2:0
    Bit depth : 8 bits
    Scan type : Progressive
    Bits/(Pixel*Frame) : 0.484
    Stream size : 15.1 GiB (87%)
    Writing library : x264 core 93 r1538 bd72d46
    Encoding settings : cabac=1 / ref=5 / deblock=1:-4:-4 / analyse=0x3:0x113 / me=umh / subme=9 / psy=1 / psy_rd=1.00:0.00 / mixed_ref=1 / me_range=24 / chroma_me=1 / trellis=2 / 8x8dct=1 / cqm=0 / deadzone=21 , 11 / fast_pskip=1 / chroma_qp_offset=-2 / threads=12 / sliced_threads=0 / nr=0 / decimate=1 / interlaced=0 / constrained_intra=0 / bframes=8 / b_pyramid=1 / b_adapt=2 / b_bias=0 / direct=2 / wpredb=1 / wpredp=2 / keyint=250 / keyint_min=25 / scenecut=40 / intra_refresh=0 / rc_lookahead=40 / rc=2pass / mbtree=1 / bitrate=16541 / ratetol=2.0 / qcomp=0.70 / qpmin=10 / qpmax=51 / qpstep=4 / cplxblur=20.0 / qblur=0.5 / vbv_maxrate=50000 / vbv_bufsize=50000 / ip_ratio=1.40 / aq=1:0.80 / nal_hrd=none
    Language : English

    Audio #1
    ID : 2
    Format : AC-3
    Format/Info : Audio Coding 3
    Mode extension : CM (complete main)
    Codec ID : A_AC3
    Duration : 1h 58mn
    Bit rate mode : Constant
    Bit rate : 384 Kbps
    Channel(s) : 6 channels
    Channel positions : Front: L C R , Side: L R , LFE
    Sampling rate : 48.0 KHz
    Bit depth : 16 bits
    Compression mode : Lossy
    Stream size : 326 MiB (2%)

    Audio #2
    ID : 3
    Format : DTS
    Format/Info : Digital Theater Systems
    Format profile : MA / Core
    Codec ID : A_DTS
    Duration : 1h 58mn
    Bit rate mode : Variable
    Bit rate : 1 843 Kbps / 1 510 Kbps
    Channel(s) : 6 channels
    Channel positions : Front: L C R , Side: L R , LFE
    Sampling rate : 48.0 KHz
    Bit depth : 24 bits
    Compression mode : Lossless / Lossy
    Language : English

    Text #1
    ID : 4
    Format : VobSub
    Muxing mode : zlib
    Codec ID : S_VOBSUB
    Codec ID/Info : The same subtitle format used on DVDs
    Language : Thai

    Text #2
    ID : 5
    Format : VobSub
    Muxing mode : zlib
    Codec ID : S_VOBSUB
    Codec ID/Info : The same subtitle format used on DVDs
    Language : Thai

    Text #3
    ID : 6
    Format : UTF-8
    Codec ID : S_TEXT/UTF8
    Codec ID/Info : UTF-8 Plain Text
    Language : English




    credit :: zyzzy ขอขอบคุณครับ

    http://www.mekafile.com/dl.php?f=1n5fe7533413

  2. The Following User Says Thank You to Duckload.us For This Useful Post:

    anannitisat (09-23-2014)

  3. #2
    Senior Member anannitisat's Avatar
    Join Date
    Oct 2012
    Location
    Thailand
    Posts
    2,348
    Thanks
    2,886
    Thanked 3 Times in 2 Posts
    ขอบคุณมากครับ





+ Reply to Thread

Thread Information

Users Browsing this Thread

There are currently 1 users browsing this thread. (0 members and 1 guests)

     

Posting Permissions

  • You may not post new threads
  • You may not post replies
  • You may not post attachments
  • You may not edit your posts