-------------------------------------------------------------------------------------------------------



Batman Begins - แบทแมน บีกินส์

ประเภท/Type :
Action/Adventure
Children/Family
Sci-Fi/Fantasy

สร้างโดย/Studio : Warner Home Video

รายละเอียดเรื่องย่อ/Synopsis
ต้นกำเนิดของตำนานแบทแมน หลังจากที่พ่อแม่ของเขาถูกฆาตกรรม บรูซ เวนน์ ต้องทนทุกข์ทรมาน และ.โกรธต่อความชั่วร้าย เขาปรารถนาอย่างแรงกล้าที่จะแก้แค้น เขาออกเดินทางท่องโลก เพื่อค้นหาหนทางที่จะต่อสู้กับความอยุติธรรม แล้วเขากลับมายังเมืองก็อธแธมพร้อมกับเผยโฉมพลังที่เ ปลี่ยนไป แบทแมนผู้พิทักษ์ในหน้ากาก ทำสงครามที่ใช้กำลัง สติปัญญา และ.อาวุธเครื่องมือที่ทันสมัยต่างๆเเพื่อต่อสู้กับเ หล่าคนหยาบช้าที่จ้องจะทำลายเมือง

กลับมาอีกครั้งสำหรับฮีโร่สุดคลาสสิค ขวัญใจคนทั้งโลก... Batman ซึ่งในภาคนี้ได้เปิดเผยถึงที่มาของเขา ได้นักแสดงหนุ่มกล้ามโต ขวัญใจสาวๆเคริสเตียน เบล มาสวมหน้ากากมนุษย์ค้างคาว ประกาศตัวอย่างยิ่งใหญ่

นักแสดง/Actors :
- Christian Bale
- Michael Caine
- Liam Neeson
- Katie Holmes
- Gary Oldman
- Cillian Murphy
- Tom Wilkinson
- Rutger Hauer
- Ken Watanabe (เคน วาตานาเบ้)
- Morgan Freeman
- Linus Roache

ผู้กำกับ/Directors :
- Christopher Nolan


General
Unique ID : 213287821968197940639935475129182850577 (0xA075BD84F79B15D8A7A598981E440E11)
Complete name : C:UsersAdministratorDownloadsMo[m-HD] The Dark Knight Trilogy 2005-2012 IMAX BluRay 1080p AC3 x264-CtHtsBatman Begins 2005 REMASTERED BluRay 1080p AC3 x264-CtHts.mkv
Format : Matroska
Format version : Version 4
File size : 3.53 GiB
Duration : 2 h 20 min
Overall bit rate : 3 612 kb/s
Movie name : Batman Begins 2005 REMASTERED BluRay 1080p AC3 x264-CtHts
Encoded date : UTC 2018-11-27 12:34:02
Writing application : mkvmerge v6.9.1 ( Blue Panther ) 32bit built on Apr 18 2014 18:15:44
Writing library : libebml v1.3.0 + libmatroska v1.4.1

Video
ID : 1
Format : AVC
Format/Info : Advanced Video Codec
Format profile : [email protected]
Format settings : CABAC / 4 Ref Frames
Format settings, CABAC : Yes
Format settings, RefFrames : 4 frames
Codec ID : V_MPEG4/ISO/AVC
Duration : 2 h 20 min
Bit rate : 2 500 kb/s
Width : 1 920 pixels
Height : 800 pixels
Display aspect ratio : 2.40:1
Frame rate mode : Constant
Frame rate : 23.976 (23976/1000) FPS
Color space : YUV
Chroma subsampling : 4:2:0
Bit depth : 8 bits
Scan type : Progressive
Bits/(Pixel*Frame) : 0.068
Stream size : 2.40 GiB (68%)
Title : Batman Begins 2005 REMASTERED BluRay 1080p AC3 x264-CtHts
Writing library : x264 core 152 r2851M ba24899
Encoding settings : cabac=1 / ref=4 / deblock=1:-1:-1 / analyse=0x3:0x113 / me=umh / subme=9 / psy=1 / psy_rd=1.00:0.15 / mixed_ref=1 / me_range=24 / chroma_me=1 / trellis=2 / 8x8dct=1 / cqm=0 / deadzone=21,11 / fast_pskip=1 / chroma_qp_offset=-3 / threads=32 / lookahead_threads=4 / sliced_threads=0 / nr=0 / decimate=1 / interlaced=0 / bluray_compat=0 / constrained_intra=0 / bframes=3 / b_pyramid=2 / b_adapt=2 / b_bias=0 / direct=3 / weightb=1 / open_gop=0 / weightp=2 / keyint=250 / keyint_min=25 / scenecut=40 / intra_refresh=0 / rc_lookahead=50 / rc=2pass / mbtree=1 / bitrate=2500 / ratetol=1.0 / qcomp=0.60 / qpmin=0 / qpmax=69 / qpstep=4 / cplxblur=20.0 / qblur=0.5 / vbv_maxrate=31250 / vbv_bufsize=31250 / nal_hrd=none / filler=0 / ip_ratio=1.40 / aq=3:1.00
Language : English
Default : Yes
Forced : Yes

Audio #1
ID : 2
Format : AC-3
Format/Info : Audio Coding 3
Commercial name : Dolby Digital
Codec ID : A_AC3
Duration : 2 h 20 min
Bit rate mode : Constant
Bit rate : 640 kb/s
Channel(s) : 6 channels
Channel layout : L R C LFE Ls Rs
Sampling rate : 48.0 kHz
Frame rate : 31.250 FPS (1536 SPF)
Bit depth : 16 bits
Compression mode : Lossy
Stream size : 641 MiB (18%)
Title : Thai AC-3 5.1 640 Kbps BluRay Master
Language : Thai
Service kind : Complete Main
Default : Yes
Forced : Yes

Audio #2
ID : 3
Format : AC-3
Format/Info : Audio Coding 3
Commercial name : Dolby Digital
Codec ID : A_AC3
Duration : 2 h 20 min
Bit rate mode : Constant
Bit rate : 448 kb/s
Channel(s) : 6 channels
Channel layout : L R C LFE Ls Rs
Sampling rate : 48.0 kHz
Frame rate : 31.250 FPS (1536 SPF)
Bit depth : 16 bits
Compression mode : Lossy
Stream size : 449 MiB (12%)
Title : English AC-3 5.1 448 Kbps
Language : English
Service kind : Complete Main
Default : No
Forced : No

Text #1
ID : 4
Format : VobSub
Muxing mode : zlib
Codec ID : S_VOBSUB
Codec ID/Info : Picture based subtitle format used on DVDs
Title : Thai 480p
Language : Thai
Default : No
Forced : No

Text #2
ID : 5
Format : VobSub
Muxing mode : zlib
Codec ID : S_VOBSUB
Codec ID/Info : Picture based subtitle format used on DVDs
Title : Thai 720p
Language : Thai
Default : No
Forced : No

Text #3
ID : 6
Format : VobSub
Muxing mode : zlib
Codec ID : S_VOBSUB
Codec ID/Info : Picture based subtitle format used on DVDs
Title : Thai 1080p BluRay Master
Language : Thai
Default : Yes
Forced : Yes

Text #4
ID : 7
Format : VobSub
Muxing mode : zlib
Codec ID : S_VOBSUB
Codec ID/Info : Picture based subtitle format used on DVDs
Title : Thai 1080p BluRay Master [Out]
Language : Thai
Default : No
Forced : No

Text #5
ID : 8
Format : PGS
Muxing mode : zlib
Codec ID : S_HDMV/PGS
Codec ID/Info : Picture based subtitle format used on BDs/HD-DVDs
Title : Thai PGS BluRay Master
Language : Thai
Default : No
Forced : No

Text #6
ID : 9
Format : PGS
Muxing mode : zlib
Codec ID : S_HDMV/PGS
Codec ID/Info : Picture based subtitle format used on BDs/HD-DVDs
Title : Thai PGS BluRay Master [Out]
Language : Thai
Default : No
Forced : No

Text #7
ID : 10
Format : UTF-8
Codec ID : S_TEXT/UTF8
Codec ID/Info : UTF-8 Plain Text
Title : Thai SRT
Language : Thai
Default : No
Forced : No

Text #8
ID : 11
Format : UTF-8
Codec ID : S_TEXT/UTF8
Codec ID/Info : UTF-8 Plain Text
Title : English SRT
Language : English
Default : No
Forced : No




-------------------------------------------------------------------------------------------------------



The Dark Knight - แบทแมน อัศวินรัตติกาล

ประเภท/Type :
Action/Adventure
Sci-Fi/Fantasy
Thriller

สร้างโดย/Studio : Warner Home Video

รายละเอียดเรื่องย่อ/Synopsis
ด้วยความช่วยเหลือของผู้หมวดจิม กอร์ดอน.(แกรี่ โอลด์แมน).และ.อัยการเขตฮาร์วีย์ เดนท์.(แอรอน เอคฮาร์ท).แบทแมน.(คริสเตียน เบล).มุ่งมั่นที่จะทำลายล้างองค์กรอาชญากรรมในกอธแธม ให้สิ้นซาก การทำงานแบบสามทหารเสือดูเหมือนจะสัมฤทธิผล แต่ไม่ช้าพวกเขากลับพบว่าตกเป็นเหยื่อของจอมอาชญากรโ จ๊กเกอร์.(ฮีท เลดเจอร์). ผู้ซึ่งทำให้กอธแธมต้องตกอยู่ในความสับสนและ.บีบบังค ับให้อัศวินดำต้องเฉียดเข้าไปใกล้เส้นแบ่งระหว่างวีร บุรุษและ.วายร้ายมากยิ่งขึ้น

นักแสดง/Actors :
- Christian Bale
- Michael Caine
- Heath Ledger
- Gary Oldman
- Aaron Eckhart
- Maggie Gyllenhaal
- Morgan Freeman

ผู้กำกับ/Directors :
- Christopher Nolan


General
Unique ID : 173403188364268174858881445133097619722 (0x82743D42428B63CFB7C45E3D712FD10A)
Complete name : C:UsersAdministratorDownloadsMo[m-HD] The Dark Knight Trilogy 2005-2012 IMAX BluRay 1080p AC3 x264-CtHtsThe Dark Knight 2008 IMAX BluRay 1080p AC3 x264-CtHts.mkv
Format : Matroska
Format version : Version 4
File size : 3.64 GiB
Duration : 2 h 32 min
Overall bit rate : 3 425 kb/s
Movie name : The Dark Knight 2008 IMAX BluRay 1080p AC3 x264-CtHts
Encoded date : UTC 2018-11-27 12:43:40
Writing application : mkvmerge v6.9.1 ( Blue Panther ) 32bit built on Apr 18 2014 18:15:44
Writing library : libebml v1.3.0 + libmatroska v1.4.1

Video
ID : 1
Format : AVC
Format/Info : Advanced Video Codec
Format profile : [email protected]
Format settings : CABAC / 4 Ref Frames
Format settings, CABAC : Yes
Format settings, RefFrames : 4 frames
Codec ID : V_MPEG4/ISO/AVC
Duration : 2 h 32 min
Bit rate : 2 500 kb/s
Width : 1 920 pixels
Height : 1 080 pixels
Display aspect ratio : 16:9
Frame rate mode : Constant
Frame rate : 23.976 (23976/1000) FPS
Color space : YUV
Chroma subsampling : 4:2:0
Bit depth : 8 bits
Scan type : Progressive
Bits/(Pixel*Frame) : 0.050
Stream size : 2.62 GiB (72%)
Title : The Dark Knight 2008 IMAX BluRay 1080p AC3 x264-CtHts
Writing library : x264 core 152 r2851M ba24899
Encoding settings : cabac=1 / ref=4 / deblock=1:-1:-1 / analyse=0x3:0x113 / me=umh / subme=9 / psy=1 / psy_rd=1.00:0.15 / mixed_ref=1 / me_range=24 / chroma_me=1 / trellis=2 / 8x8dct=1 / cqm=0 / deadzone=21,11 / fast_pskip=1 / chroma_qp_offset=-3 / threads=32 / lookahead_threads=4 / sliced_threads=0 / nr=0 / decimate=1 / interlaced=0 / bluray_compat=0 / constrained_intra=0 / bframes=3 / b_pyramid=2 / b_adapt=2 / b_bias=0 / direct=3 / weightb=1 / open_gop=0 / weightp=2 / keyint=250 / keyint_min=25 / scenecut=40 / intra_refresh=0 / rc_lookahead=50 / rc=2pass / mbtree=1 / bitrate=2500 / ratetol=1.0 / qcomp=0.60 / qpmin=0 / qpmax=69 / qpstep=4 / cplxblur=20.0 / qblur=0.5 / vbv_maxrate=31250 / vbv_bufsize=31250 / nal_hrd=none / filler=0 / ip_ratio=1.40 / aq=3:1.00
Language : English
Default : Yes
Forced : Yes

Audio #1
ID : 2
Format : AC-3
Format/Info : Audio Coding 3
Commercial name : Dolby Digital
Codec ID : A_AC3
Duration : 2 h 32 min
Bit rate mode : Constant
Bit rate : 448 kb/s
Channel(s) : 6 channels
Channel layout : L R C LFE Ls Rs
Sampling rate : 48.0 kHz
Frame rate : 31.250 FPS (1536 SPF)
Bit depth : 16 bits
Compression mode : Lossy
Stream size : 488 MiB (13%)
Title : Thai AC-3 5.1 448 Kbps [BluRay Master]
Language : Thai
Service kind : Complete Main
Default : Yes
Forced : Yes

Audio #2
ID : 3
Format : AC-3
Format/Info : Audio Coding 3
Commercial name : Dolby Digital
Codec ID : A_AC3
Duration : 2 h 32 min
Bit rate mode : Constant
Bit rate : 448 kb/s
Channel(s) : 6 channels
Channel layout : L R C LFE Ls Rs
Sampling rate : 48.0 kHz
Frame rate : 31.250 FPS (1536 SPF)
Bit depth : 16 bits
Compression mode : Lossy
Stream size : 488 MiB (13%)
Title : English AC-3 5.1 448 Kbps
Language : English
Service kind : Complete Main
Default : No
Forced : No

Text #1
ID : 4
Format : VobSub
Muxing mode : zlib
Codec ID : S_VOBSUB
Codec ID/Info : Picture based subtitle format used on DVDs
Title : Thai 480p
Language : Thai
Default : No
Forced : No

Text #2
ID : 5
Format : VobSub
Muxing mode : zlib
Codec ID : S_VOBSUB
Codec ID/Info : Picture based subtitle format used on DVDs
Title : Thai 720p
Language : Thai
Default : No
Forced : No

Text #3
ID : 6
Format : VobSub
Muxing mode : zlib
Codec ID : S_VOBSUB
Codec ID/Info : Picture based subtitle format used on DVDs
Title : Thai 1080p BluRay Master
Language : Thai
Default : Yes
Forced : Yes

Text #4
ID : 7
Format : VobSub
Muxing mode : zlib
Codec ID : S_VOBSUB
Codec ID/Info : Picture based subtitle format used on DVDs
Title : Thai 1080p BluRay Master [Out]
Language : Thai
Default : No
Forced : No

Text #5
ID : 8
Format : PGS
Muxing mode : zlib
Codec ID : S_HDMV/PGS
Codec ID/Info : Picture based subtitle format used on BDs/HD-DVDs
Title : Thai PGS BluRay Master
Language : Thai
Default : No
Forced : No

Text #6
ID : 9
Format : PGS
Muxing mode : zlib
Codec ID : S_HDMV/PGS
Codec ID/Info : Picture based subtitle format used on BDs/HD-DVDs
Title : Thai PGS BluRay Master [Out]
Language : Thai
Default : No
Forced : No

Text #7
ID : 10
Format : UTF-8
Codec ID : S_TEXT/UTF8
Codec ID/Info : UTF-8 Plain Text
Title : Thai SRT
Language : Thai
Default : No
Forced : No

Text #8
ID : 11
Format : UTF-8
Codec ID : S_TEXT/UTF8
Codec ID/Info : UTF-8 Plain Text
Title : English SRT
Language : English
Default : No
Forced : No




-------------------------------------------------------------------------------------------------------



The Dark Knight Rises - แบทแมน อัศวินรัตติกาลผงาด

ประเภท/Type :
Action/Adventure
Thriller

สร้างโดย/Studio : Warner Home Video

รายละเอียดเรื่องย่อ/Synopsis
เป็นเวลาถึง 8 ปีแล้วที่แบทแมนหายตัวไปในยามค่ำคืน พลิกจากมาดฮีโร่กลายเป็นผู้หลบหนีในคดีการตายของอัยก ารเขต ฮาร์วีย์ เดนท์ แบทแมนยอมสละทุกสิ่งเพื่อสิ่งที่เขาและ.ผู้บัญชาการก อร์ดอนต่างต่อสู้เพื่อให้ก็อธแธมดียิ่งขึ้น ขณะที่อาชญากรรมในเมืองหลวงลดลง แต่มันเหมือนเมฆที่ตั้งเค้ารอพายุลูกยักษ์เกิดขึ้น จนกระทั่งแมวขโมยเจ้าเล่ห์เผยโฉมในนามแคทวูแมนพร้อมก ับปฏิบัติการลับ และ.ที่น่ากลัวกว่านั้นคือเเบน วายร้ายจอมพลังภายใต้หน้ากาก ที่มาเพื่อทำลายกฏระเบียบของก็อธแธมให้ย่อยยับ ถึงเวลาที่แบทแมนต้องกลับมาผงาดอีกครั้ง

นักแสดง/Actors :
- Christian Bale
- Gary Oldman
- Tom Hardy
- Joseph Gordon-Levitt
- Anne Hathaway

ผู้กำกับ/Directors :
- Christopher Nolan


General
Unique ID : 202518745992962864294903642471648005365 (0x985BB1149C9A0A7EA787C8B629610CF5)
Complete name : C:UsersAdministratorDownloadsMo[m-HD] The Dark Knight Trilogy 2005-2012 IMAX BluRay 1080p AC3 x264-CtHtsThe Dark Knight Rises 2012 IMAX BluRay 1080p AC3 x264-CtHts.mkv
Format : Matroska
Format version : Version 4
File size : 3.93 GiB
Duration : 2 h 44 min
Overall bit rate : 3 422 kb/s
Movie name : The Dark Knight Rises 2012 IMAX BluRay 1080p AC3 x264-CtHts
Encoded date : UTC 2018-11-27 13:01:52
Writing application : mkvmerge v6.9.1 ( Blue Panther ) 32bit built on Apr 18 2014 18:15:44
Writing library : libebml v1.3.0 + libmatroska v1.4.1

Video
ID : 1
Format : AVC
Format/Info : Advanced Video Codec
Format profile : [email protected]
Format settings : CABAC / 4 Ref Frames
Format settings, CABAC : Yes
Format settings, RefFrames : 4 frames
Codec ID : V_MPEG4/ISO/AVC
Duration : 2 h 44 min
Bit rate : 2 500 kb/s
Width : 1 920 pixels
Height : 1 080 pixels
Display aspect ratio : 16:9
Frame rate mode : Constant
Frame rate : 23.976 (23976/1000) FPS
Color space : YUV
Chroma subsampling : 4:2:0
Bit depth : 8 bits
Scan type : Progressive
Bits/(Pixel*Frame) : 0.050
Stream size : 2.83 GiB (72%)
Title : The Dark Knight Rises 2012 IMAX BluRay 1080p AC3 x264-CtHts
Writing library : x264 core 152 r2851M ba24899
Encoding settings : cabac=1 / ref=4 / deblock=1:-1:-1 / analyse=0x3:0x113 / me=umh / subme=9 / psy=1 / psy_rd=1.00:0.15 / mixed_ref=1 / me_range=24 / chroma_me=1 / trellis=2 / 8x8dct=1 / cqm=0 / deadzone=21,11 / fast_pskip=1 / chroma_qp_offset=-3 / threads=32 / lookahead_threads=4 / sliced_threads=0 / nr=0 / decimate=1 / interlaced=0 / bluray_compat=0 / constrained_intra=0 / bframes=3 / b_pyramid=2 / b_adapt=2 / b_bias=0 / direct=3 / weightb=1 / open_gop=0 / weightp=2 / keyint=250 / keyint_min=25 / scenecut=40 / intra_refresh=0 / rc_lookahead=50 / rc=2pass / mbtree=1 / bitrate=2500 / ratetol=1.0 / qcomp=0.60 / qpmin=0 / qpmax=69 / qpstep=4 / cplxblur=20.0 / qblur=0.5 / vbv_maxrate=31250 / vbv_bufsize=31250 / nal_hrd=none / filler=0 / ip_ratio=1.40 / aq=3:1.00
Language : English
Default : Yes
Forced : Yes

Audio #1
ID : 2
Format : AC-3
Format/Info : Audio Coding 3
Commercial name : Dolby Digital
Codec ID : A_AC3
Duration : 2 h 44 min
Bit rate mode : Constant
Bit rate : 448 kb/s
Channel(s) : 6 channels
Channel layout : L R C LFE Ls Rs
Sampling rate : 48.0 kHz
Frame rate : 31.250 FPS (1536 SPF)
Bit depth : 16 bits
Compression mode : Lossy
Stream size : 527 MiB (13%)
Title : Thai AC-3 5.1 448 Kbps BluRay Master
Language : Thai
Service kind : Complete Main
Default : Yes
Forced : Yes

Audio #2
ID : 3
Format : AC-3
Format/Info : Audio Coding 3
Commercial name : Dolby Digital
Codec ID : A_AC3
Duration : 2 h 44 min
Bit rate mode : Constant
Bit rate : 448 kb/s
Channel(s) : 6 channels
Channel layout : L R C LFE Ls Rs
Sampling rate : 48.0 kHz
Frame rate : 31.250 FPS (1536 SPF)
Bit depth : 16 bits
Compression mode : Lossy
Stream size : 527 MiB (13%)
Title : English AC3 5.1 448 Kbps
Language : English
Service kind : Complete Main
Default : No
Forced : No

Text #1
ID : 4
Format : VobSub
Muxing mode : zlib
Codec ID : S_VOBSUB
Codec ID/Info : Picture based subtitle format used on DVDs
Title : Thai 480p
Language : Thai
Default : No
Forced : No

Text #2
ID : 5
Format : VobSub
Muxing mode : zlib
Codec ID : S_VOBSUB
Codec ID/Info : Picture based subtitle format used on DVDs
Title : Thai 720p
Language : Thai
Default : No
Forced : No

Text #3
ID : 6
Format : VobSub
Muxing mode : zlib
Codec ID : S_VOBSUB
Codec ID/Info : Picture based subtitle format used on DVDs
Title : Thai 1080p BluRay Master
Language : Thai
Default : Yes
Forced : Yes

Text #4
ID : 7
Format : VobSub
Muxing mode : zlib
Codec ID : S_VOBSUB
Codec ID/Info : Picture based subtitle format used on DVDs
Title : Thai 1080p BluRay Master [Out]
Language : Thai
Default : No
Forced : No

Text #5
ID : 8
Format : PGS
Muxing mode : zlib
Codec ID : S_HDMV/PGS
Codec ID/Info : Picture based subtitle format used on BDs/HD-DVDs
Title : Thai PGS BluRay Master
Language : Thai
Default : No
Forced : No

Text #6
ID : 9
Format : PGS
Muxing mode : zlib
Codec ID : S_HDMV/PGS
Codec ID/Info : Picture based subtitle format used on BDs/HD-DVDs
Title : Thai PGS BluRay Master [Out]
Language : Thai
Default : No
Forced : No

Text #7
ID : 10
Format : UTF-8
Codec ID : S_TEXT/UTF8
Codec ID/Info : UTF-8 Plain Text
Title : Thai SRT
Language : Thai
Default : No
Forced : No

Text #8
ID : 11
Format : UTF-8
Codec ID : S_TEXT/UTF8
Codec ID/Info : UTF-8 Plain Text
Title : English SRT
Language : English
Default : No
Forced : No

Text #9
ID : 12
Format : UTF-8
Codec ID : S_TEXT/UTF8
Codec ID/Info : UTF-8 Plain Text
Title : English SDH SRT
Language : English
Default : No
Forced : No





Batman Begins 2005 REMASTERED BluRay 1080p AC3 x264-CtHts.mkv - 3.5 GB
The Dark Knight 2008 IMAX BluRay 1080p AC3 x264-CtHts.mkv - 3.6 GB
The Dark Knight Rises 2012 IMAX BluRay 1080p AC3 x264-CtHts.mkv - 3.9 GB


1
http://www.mekafile.com/dl.php?f=7T5248bNlNHE
2
http://www.mekafile.com/dl.php?f=wa28d1bNlNVj
3
http://www.mekafile.com/dl.php?f=LS5dadbNlNOE