+ ตอบกลับกระทู้
สรุปผลการค้นหา 1 ถึง 8 จากทั้งหมด 8
  1. #1
    Administrators รูปส่วนตัว Duckload.us
    สมัครเมื่อ
    Dec 2010
    โพสต์
    150,746
    Thanks
    7
    Thanked 157,939 Times in 68,958 Posts

    Lightbulb [Disney+] Shogun (2024) S01 Ep.01-07 [เสียง:Soundtrack AC-3 5.1][บรรยาย: ไทย PGS และ ไทย/อังกฤษ SRT]



    FX’s Shōgun ได้ดัดแปลงเหตุการณ์ในวรรณกรรมชื่อดังของ James Clavell นำเสนอเรื่องราวผ่านมุมมองของ “จอห์น แบล็กธอร์น” นักเดินเรือชาวอังกฤษ ผู้ซึ่งเรืออับปางบนชายฝั่งญี่ปุ่น ทำให้เขาต้องเผชิญกับระบบศักดินาในสังคมญี่ปุ่น ในขณะเดียวกัน แบล็กธอร์น ยังต้องต่อสู้กับอัตลักษณ์และความจงรักภักดีของตนเอง ในดินแดนที่มีวิถีชีวิตที่แตกต่างจากบ้านเกิดของเขาอ ย่างสิ้นเชิง ซึ่งการเดินทางของ แบล็กธอร์น ทำให้โชคชะตาของเขาผูกพันกับ “โยชิอิ โทรานางะ” ไดเมียวที่ต้องอาศัยไหวพริบและเล่ห์เพทุบายเพื่อเอาต ัวรอดจากศัตรูที่ล้อมรอบตัวเขา และ “โทดะ มาริโกะ” ล่ามหญิงสาวชาวคริสต์ ที่เคยมีเกียรติสูงสุดแต่วันนี้กลับเป็นสมาชิกคนสุดท ้ายของตระกูลที่เสื่อมเสีย

    โดยในขณะที่เรื่องราวของแบล็กธอร์น เริ่มคลี่คลายในทีละตอน ผู้ชมจะรู้สึกเหมือนถูกดึงดูดเข้าไปในโลกที่เปี่ยมด้ วยความสัมพันธ์ที่ซับซ้อน ความรักต้องห้าม และการต่อสู้ครั้งยิ่งใหญ่เพื่อแย่งชิงอำนาจสูงสุดเพ ื่อจะขึ้นเป็นโชกุน


    General
    Unique ID : 106612325455169988469097378636139545713 (0x5034C9790F7E418EC97C142E44834471)
    Complete name : E:\Shogun (2024) S01 Ep.1-2\Shogun.2024.S01E01.Anjin.1080p.Modified By mxn.mkv
    Format : Matroska
    Format version : Version 4 / Version 2
    File size : 2.93 GiB
    Duration : 1h 10mn
    Overall bit rate : 5 962 Kbps
    Movie name : Shogun.2024.S01E01.Anjin.1080p.Modified By mxn
    Encoded date : UTC 2024-02-27 07:07:40
    Writing application : mkvmerge v82.0 ('I'm The President') 64-bit
    Writing library : libebml v1.4.5 + libmatroska v1.7.1
    DURATION : 01:09:19.475000000
    NUMBER_OF_FRAMES : 707
    NUMBER_OF_BYTES : 60240
    _STATISTICS_WRITING_APP : mkvmerge v82.0 ('I'm The President') 64-bit
    _STATISTICS_WRITING_DATE_UTC : 2024-02-27 07:07:40
    _STATISTICS_TAGS : BPS DURATION NUMBER_OF_FRAMES NUMBER_OF_BYTES

    Video
    ID : 1
    Format : AVC
    Format/Info : Advanced Video Codec
    Format profile : High@L4
    Format settings, CABAC : Yes
    Format settings, ReFrames : 4 frames
    Codec ID : V_MPEG4/ISO/AVC
    Duration : 1h 10mn
    Bit rate : 5 587 Kbps
    Width : 1 920 pixels
    Height : 1 080 pixels
    Display aspect ratio : 16:9
    Frame rate mode : Constant
    Frame rate : 24.000 fps
    Color space : YUV
    Chroma subsampling : 4:2:0
    Bit depth : 8 bits
    Scan type : Progressive
    Bits/(Pixel*Frame) : 0.112
    Stream size : 2.74 GiB (94%)
    Default : Yes
    Forced : No

    Audio
    ID : 2
    Format : E-AC-3
    Format/Info : Audio Coding 3
    Format settings, Endianness : Big
    Codec ID : A_EAC3
    Duration : 1h 10mn
    Bit rate mode : Constant
    Bit rate : 256 Kbps
    Channel(s) : 6 channels
    Channel positions : Front: L C R, Side: L R, LFE
    Sampling rate : 48.0 KHz
    Compression mode : Lossy
    Stream size : 129 MiB (4%)
    Title : [English-AC-3]
    Language : English
    Default : Yes
    Forced : No

    Text #1
    ID : 3
    Format : PGS
    Muxing mode : zlib
    Codec ID : S_HDMV/PGS
    Codec ID/Info : Picture based subtitle format used on BDs/HD-DVDs
    Title : [Thai Disney+ PGS]
    Language : Thai
    Default : Yes
    Forced : No

    Text #2
    ID : 4
    Format : UTF-8
    Codec ID : S_TEXT/UTF8
    Codec ID/Info : UTF-8 Plain Text
    Title : Thai SRT
    Language : Thai
    Default : No
    Forced : No

    Text #3
    ID : 5
    Format : UTF-8
    Codec ID : S_TEXT/UTF8
    Codec ID/Info : UTF-8 Plain Text
    Title : English [SDH]
    Language : English
    Default : No
    Forced : No





    Shogun.2024.S01E07.A.Stick.of.Time_.1080p.Modified _By_mxn.mkv
    http://www.filecondo.com/dl.php?f=M7b4381RRZnT

    Shogun.2024.S01E06.Ladies.of.the.Willow.World.1080 p.Modified_By_mxn.mkv
    http://www.filecondo.com/dl.php?f=Tdca821RPrql

    Shogun.2024.S01E05.Broken.to.the.Fist.1080p.Modifi ed_By_mxn.mkv
    http://www.filecondo.com/dl.php?f=A7760d1ROmEn

    Shogun.2024.S01E04.The.Eightfold.Fence.1080p.Modif ied_By_mxn.mkv
    http://www.filecondo.com/dl.php?f=n146c11RKlhL

    Shogun.2024.S01E03.Tomorrow.is.Tomorrow.1080p.Modi fied_By_mxn.mkv
    http://www.filecondo.com/dl.php?f=m100d81RId9M

    Shogun.2024.S01E02.Servants.of.Two.Masters.1080p.M odified_By_mxn.mkv
    http://www.filecondo.com/dl.php?f=Vb99801REYbb

    Shogun.2024.S01E01.Anjin.1080p.Modified_By_mxn.mkv
    http://www.filecondo.com/dl.php?f=h2ad5f1REYae

  2. The Following 4 Users Say Thank You to Duckload.us For This Useful Post:

    amorn wichian (02-28-2024), jackjangri1 (02-27-2024), masaomi (02-29-2024), mta28 (03-05-2024)

  3. #2
    Member
    สมัครเมื่อ
    Jan 2019
    โพสต์
    99
    Thanks
    0
    Thanked 0 Times in 0 Posts
    ขอบคุณครับ

  4. #3
    Member
    สมัครเมื่อ
    Nov 2021
    โพสต์
    54
    Thanks
    0
    Thanked 0 Times in 0 Posts
    ขอบคุณครับ

  5. #4
    Junior Member
    สมัครเมื่อ
    Feb 2024
    โพสต์
    20
    Thanks
    20
    Thanked 0 Times in 0 Posts
    ขอบคุณครับ

  6. #5
    Member
    สมัครเมื่อ
    May 2012
    ที่อยู่
    Thailand
    โพสต์
    74
    Thanks
    682
    Thanked 0 Times in 0 Posts
    Thank you so much.

  7. #6
    Administrators รูปส่วนตัว Duckload.us
    สมัครเมื่อ
    Dec 2010
    โพสต์
    150,746
    Thanks
    7
    Thanked 157,939 Times in 68,958 Posts
    Shogun (2024) S01 Ep.01-03

  8. #7
    Administrators รูปส่วนตัว Duckload.us
    สมัครเมื่อ
    Dec 2010
    โพสต์
    150,746
    Thanks
    7
    Thanked 157,939 Times in 68,958 Posts
    S01 Ep.01-04

  9. #8
    Administrators รูปส่วนตัว Duckload.us
    สมัครเมื่อ
    Dec 2010
    โพสต์
    150,746
    Thanks
    7
    Thanked 157,939 Times in 68,958 Posts
    Shogun (2024) S01 Ep.01-06

+ ตอบกลับกระทู้

ข้อมูลกระทู้

Users Browsing this Thread

ในขณะนี้มี 1 ท่านดูกระทู้อยู่. (0 สมาชิกและ 1 ผู้เยี่ยมชม)

     

กฎการโพสต์ข้อความ

  • ท่าน ไม่สามารถ ตั้งกระทู้ใหม่ได้
  • ท่าน ไม่สามารถ ตอบกระทู้ได้
  • ท่าน ไม่สามารถ แนบไฟล์ได้
  • ท่าน ไม่สามารถ แก้ไขข้อความโพสต์ได้
  • BB code สถานะ เปิด
  • Smilies สถานะ เปิด
  • [IMG] สถานะ เปิด
  • HTML สถานะ ปิด