+ Reply to Thread
Results 1 to 1 of 1
  1. #1
    Administrators Duckload.us's Avatar
    Join Date
    Dec 2010
    Posts
    96,915
    Thanks
    9
    Thanked 98,375 Times in 47,332 Posts

    Exclamation [ฝรั่ง]-The Blair Witch Project (1999) สอดรู้ สอดเห็น สอดเป็น สอดตาย Blu-ray.DTS.720p.H264 [Modified]-[พากย์ไทย 2.0 + อังกฤษ DTS 2.0] [บรรยายไทย PGS + อังกฤษ] เสียงและคำบรรยายความละเอียดสูง From DVD Master



    นี่คือหนังต้นแบบของการถ่ายทำจากกล้องวิดีโอ The Blair Witch Project นับว่าเป็นเรื่องแรกๆเลยก็ว่าได้ที่ถ่ายทอดตัวหนังจา กกล้องวิดีโอ เรื่องราวเกี่ยวกับกลุ่มนักศึกษาที่ออกมาทำงานวิจัยเ กี่ยวกับเรื่องราวของแม่มดแล้วเกิดการหายตัวไปอย่างล ึกลับในป่าลึก เหลือทิ้งไว้เพียงกล้องวิดีโอเพียงหนึ่งตัวที่ถ่ายเร ื่องราวของพวกเขาทั้งหมดเก็บไว้ ทั้งความน่ากลัว...ความหลอน...ปริศนาอีกมากมาย เรื่องลึกลับที่สาเหตุไม่ได้เกิดอะไรขึ้นกับพวกเขา พวกเขากลัวอะไรกัน แล้วทำไมถึงหายตัวไป กระแสของหนังสมัยนั้นแรงมาก เพราะเชื่อว่าเอามาจากเรื่องที่เกิดขึ้นจริง ภาพเหตุการณ์จริงๆที่เอามาจากกล้องถ่ายวิดีโอแล้วนำม าตัดต่อเรียบเรียงใหม่ ผูกโยงให้เป็นเรื่องราว ถึงภายหลังจะทราบว่าเป็นเรื่องของการโปรโมทหนังเป็นแ ค่การแสดงแต่หนังในช่วงนั้นก็ทำคนกลัวและก็หวาดผวาอย ู่ไม่น้อยเลยทีเดียว

    General
    The.Blair.Witch.Project.1999.720p.BDRip.DTS.x264.m kv
    Format : Matroska
    Format version : Version 4 / Version 2
    File size : 4.50 GiB
    Duration : 1 h 21 min
    Overall bit rate : 7 909 kb/s
    Encoded date : UTC 2017-01-19 11:40:39
    Writing application : mkvmerge v9.7.1 ( Pandemonium ) 64bit
    Writing library : libebml v1.3.4 + libmatroska v1.4.5
    Cover : Yes
    Attachments : cover_land.png / cover.png

    Video
    ID : 1
    Format : AVC
    Format/Info : Advanced Video Codec
    Format profile : [email protected]
    Format settings, CABAC : Yes
    Format settings, ReFrames : 5 frames
    Codec ID : V_MPEG4/ISO/AVC
    Duration : 1 h 21 min
    Bit rate : 6 182 kb/s
    Width : 992 pixels
    Height : 720 pixels
    Display aspect ratio : 1.378
    Frame rate mode : Constant
    Frame rate : 23.976 (24000/1001) FPS
    Color space : YUV
    Chroma subsampling : 4:2:0
    Bit depth : 8 bits
    Scan type : Progressive
    Bits/(Pixel*Frame) : 0.361
    Stream size : 3.51 GiB (78%)
    Writing library : x264 core 104 r1713 c276662
    Encoding settings : cabac=1 / ref=5 / deblock=1:0:0 / analyse=0x3:0x133 / me=umh / subme=7 / psy=1 / psy_rd=1.00:0.00 / mixed_ref=1 / me_range=16 / chroma_me=1 / trellis=1 / 8x8dct=1 / cqm=0 / deadzone=21,11 / fast_pskip=1 / chroma_qp_offset=-2 / threads=12 / sliced_threads=0 / nr=0 / decimate=0 / interlaced=0 / constrained_intra=0 / bframes=3 / b_pyramid=2 / b_adapt=1 / b_bias=0 / direct=3 / weightb=1 / open_gop=0 / weightp=2 / keyint=240 / keyint_min=24 / scenecut=40 / intra_refresh=0 / rc_lookahead=30 / rc=2pass / mbtree=1 / bitrate=6182 / ratetol=1.0 / qcomp=0.60 / qpmin=10 / qpmax=51 / qpstep=4 / cplxblur=20.0 / qblur=0.5 / ip_ratio=1.40 / aq=1:1.00
    Language : English
    Default : Yes
    Forced : No

    Audio #1
    ID : 2
    Format : AC-3
    Format/Info : Audio Coding 3
    Mode extension : CM (complete main)
    Format settings, Endianness : Big
    Codec ID : A_AC3
    Duration : 1 h 21 min
    Bit rate mode : Constant
    Bit rate : 192 kb/s
    Channel(s) : 2 channels
    Channel positions : Front: L R
    Sampling rate : 48.0 kHz
    Frame rate : 31.250 FPS (1536 spf)
    Bit depth : 16 bits
    Compression mode : Lossy
    Delay relative to video : 16 ms
    Stream size : 111 MiB (2%)
    Language : Thai
    Default : Yes
    Forced : Yes

    Audio #2
    ID : 3
    Format : DTS
    Format/Info : Digital Theater Systems
    Mode : 16
    Format settings, Endianness : Big
    Codec ID : A_DTS
    Duration : 1 h 21 min
    Bit rate mode : Constant
    Bit rate : 1 509 kb/s
    Channel(s) : 2 channels
    Channel positions : Front: L R
    Sampling rate : 48.0 kHz
    Frame rate : 93.750 FPS (512 spf)
    Bit depth : 24 bits
    Compression mode : Lossy
    Stream size : 879 MiB (19%)
    Title : English DTS 1509kbps
    Language : English
    Default : No
    Forced : No

    Text #1
    ID : 4
    Format : VobSub
    Muxing mode : zlib
    Codec ID : S_VOBSUB
    Codec ID/Info : Picture based subtitle format used on DVDs
    Duration : 1 h 15 min
    Bit rate : 2 121 b/s
    Count of elements : 1101
    Stream size : 1.15 MiB (0%)
    Title : 480p
    Language : Thai
    Default : No
    Forced : No

    Text #2
    ID : 5
    Format : VobSub
    Muxing mode : zlib
    Codec ID : S_VOBSUB
    Codec ID/Info : Picture based subtitle format used on DVDs
    Duration : 1 h 15 min
    Bit rate : 3 292 b/s
    Count of elements : 1101
    Stream size : 1.79 MiB (0%)
    Title : 720p
    Language : Thai
    Default : Yes
    Forced : No

    Text #3
    ID : 6
    Format : VobSub
    Muxing mode : zlib
    Codec ID : S_VOBSUB
    Codec ID/Info : Picture based subtitle format used on DVDs
    Duration : 1 h 15 min
    Bit rate : 5 348 b/s
    Count of elements : 1101
    Stream size : 2.90 MiB (0%)
    Title : 1080p
    Language : Thai
    Default : No
    Forced : No

    Text #4
    ID : 7
    Format : PGS
    Muxing mode : zlib
    Codec ID : S_HDMV/PGS
    Codec ID/Info : Picture based subtitle format used on BDs/HD-DVDs
    Duration : 1 h 15 min
    Bit rate : 18.3 kb/s
    Count of elements : 2202
    Stream size : 9.95 MiB (0%)
    Title : Thai
    Language : Thai
    Default : No
    Forced : No

    Text #5
    ID : 8
    Format : UTF-8
    Codec ID : S_TEXT/UTF8
    Codec ID/Info : UTF-8 Plain Text
    Duration : 1 h 16 min
    Bit rate : 89 b/s
    Count of elements : 1325
    Stream size : 49.8 KiB (0%)
    Title : English
    Language : English
    Default : No
    Forced : No

    Menu
    00:00:00.000 : en:00:00:00.000
    00:04:05.912 : en:00:04:05.912
    00:10:12.737 : en:00:10:12.737
    00:14:01.466 : en:00:14:01.466
    00:17:35.721 : en:00:17:35.721
    00:21:29.038 : en:00:21:29.038
    00:24:38.894 : en:00:24:38.894
    00:27:35.571 : en:00:27:35.571
    00:30:29.036 : en:00:30:29.036
    00:36:34.651 : en:00:36:34.651
    00:41:04.253 : en:00:41:04.253
    00:44:57.278 : en:00:44:57.278
    00:48:19.105 : en:00:48:19.105
    00:54:08.245 : en:00:54:08.245
    00:58:31.425 : en:00:58:31.425
    01:10:13.543 : en:01:10:13.543







    http://www.mekafile.com/dl.php?f=KJ14c1bltQTO

  2. The Following 3 Users Say Thank You to Duckload.us For This Useful Post:

    bigbang06 (12-04-2018), inutero (01-22-2017), smakha (01-23-2017)

+ Reply to Thread

Thread Information

Users Browsing this Thread

There are currently 1 users browsing this thread. (0 members and 1 guests)

     

Posting Permissions

  • You may not post new threads
  • You may not post replies
  • You may not post attachments
  • You may not edit your posts